  0
SECTION
  2
HEADER
  9
$ACADVER
  1
AC1018
  9
$ACADMAINTVER
 70
   104
  9
$DWGCODEPAGE
  3
ANSI_932
  9
$LASTSAVEDBY
  1
サンリツ
  9
$INSBASE
 10
650.0
 20
20.0
 30
0.0
  9
$EXTMIN
 10
-1556.683107146998
 20
-1979.241988466376
 30
-0.0000000000112498
  9
$EXTMAX
 10
612.0751722110899
 20
-1371.749540130573
 30
0.0000000000002956
  9
$LIMMIN
 10
619.1509510326
 20
16.8941045183
  9
$LIMMAX
 10
1414.4726585364
 20
558.0940645183
  9
$ORTHOMODE
 70
     1
  9
$REGENMODE
 70
     0
  9
$FILLMODE
 70
     1
  9
$QTEXTMODE
 70
     0
  9
$MIRRTEXT
 70
     0
  9
$LTSCALE
 40
1.0
  9
$ATTMODE
 70
     1
  9
$TEXTSIZE
 40
6.0
  9
$TRACEWID
 40
0.05
  9
$TEXTSTYLE
  7
MDRAFSTD
  9
$CLAYER
  8
sunpo
  9
$CELTYPE
  6
ByLayer
  9
$CECOLOR
 62
   256
  9
$CELTSCALE
 40
1.0
  9
$DISPSILH
 70
     0
  9
$DIMSCALE
 40
2.0
  9
$DIMASZ
 40
2.0
  9
$DIMEXO
 40
1.0
  9
$DIMDLI
 40
7.0
  9
$DIMRND
 40
0.0
  9
$DIMDLE
 40
0.0
  9
$DIMEXE
 40
1.0
  9
$DIMTP
 40
0.0
  9
$DIMTM
 40
0.0
  9
$DIMTXT
 40
3.0
  9
$DIMCEN
 40
0.09
  9
$DIMTSZ
 40
0.0
  9
$DIMTOL
 70
     0
  9
$DIMLIM
 70
     0
  9
$DIMTIH
 70
     0
  9
$DIMTOH
 70
     0
  9
$DIMSE1
 70
     0
  9
$DIMSE2
 70
     0
  9
$DIMTAD
 70
     1
  9
$DIMZIN
 70
     8
  9
$DIMBLK
  1

  9
$DIMASO
 70
     1
  9
$DIMSHO
 70
     0
  9
$DIMPOST
  1

  9
$DIMAPOST
  1

  9
$DIMALT
 70
     0
  9
$DIMALTD
 70
     2
  9
$DIMALTF
 40
25.4
  9
$DIMLFAC
 40
1.0
  9
$DIMTOFL
 70
     0
  9
$DIMTVP
 40
0.0
  9
$DIMTIX
 70
     0
  9
$DIMSOXD
 70
     0
  9
$DIMSAH
 70
     0
  9
$DIMBLK1
  1

  9
$DIMBLK2
  1

  9
$DIMSTYLE
  2
STANDARD
  9
$DIMCLRD
 70
     4
  9
$DIMCLRE
 70
     4
  9
$DIMCLRT
 70
     4
  9
$DIMTFAC
 40
1.0
  9
$DIMGAP
 40
1.0
  9
$DIMJUST
 70
     0
  9
$DIMSD1
 70
     0
  9
$DIMSD2
 70
     0
  9
$DIMTOLJ
 70
     1
  9
$DIMTZIN
 70
     8
  9
$DIMALTZ
 70
     8
  9
$DIMALTTZ
 70
     8
  9
$DIMUPT
 70
     0
  9
$DIMDEC
 70
     4
  9
$DIMTDEC
 70
     4
  9
$DIMALTU
 70
     2
  9
$DIMALTTD
 70
     2
  9
$DIMTXSTY
  7
MDRAFSTD
  9
$DIMAUNIT
 70
     0
  9
$DIMADEC
 70
     0
  9
$DIMALTRND
 40
0.0
  9
$DIMAZIN
 70
     0
  9
$DIMDSEP
 70
    46
  9
$DIMATFIT
 70
     3
  9
$DIMFRAC
 70
     0
  9
$DIMLDRBLK
  1

  9
$DIMLUNIT
 70
     2
  9
$DIMLWD
 70
    -2
  9
$DIMLWE
 70
    -2
  9
$DIMTMOVE
 70
     2
  9
$LUNITS
 70
     2
  9
$LUPREC
 70
     4
  9
$SKETCHINC
 40
0.1
  9
$FILLETRAD
 40
0.0
  9
$AUNITS
 70
     0
  9
$AUPREC
 70
     0
  9
$MENU
  1
ACAD
  9
$ELEVATION
 40
0.0
  9
$PELEVATION
 40
0.0
  9
$THICKNESS
 40
0.0
  9
$LIMCHECK
 70
     0
  9
$CHAMFERA
 40
0.0
  9
$CHAMFERB
 40
0.0
  9
$CHAMFERC
 40
0.0
  9
$CHAMFERD
 40
0.0
  9
$SKPOLY
 70
     0
  9
$TDCREATE
 40
2418745.000000000
  9
$TDUCREATE
 40
2418744.625000000
  9
$TDUPDATE
 40
2455582.433005567
  9
$TDUUPDATE
 40
2455582.058005567
  9
$TDINDWG
 40
4.2086601273
  9
$TDUSRTIMER
 40
4.2086592130
  9
$USRTIMER
 70
     1
  9
$ANGBASE
 50
0.0
  9
$ANGDIR
 70
     0
  9
$PDMODE
 70
    65
  9
$PDSIZE
 40
0.2
  9
$PLINEWID
 40
0.0
  9
$SPLFRAME
 70
     0
  9
$SPLINETYPE
 70
     6
  9
$SPLINESEGS
 70
     8
  9
$HANDSEED
  5
290CE
  9
$SURFTAB1
 70
     6
  9
$SURFTAB2
 70
     6
  9
$SURFTYPE
 70
     6
  9
$SURFU
 70
     6
  9
$SURFV
 70
     6
  9
$UCSBASE
  2

  9
$UCSNAME
  2

  9
$UCSORG
 10
0.0
 20
0.0
 30
0.0
  9
$UCSXDIR
 10
1.0
 20
0.0
 30
0.0
  9
$UCSYDIR
 10
0.0
 20
1.0
 30
0.0
  9
$UCSORTHOREF
  2

  9
$UCSORTHOVIEW
 70
     0
  9
$UCSORGTOP
 10
0.0
 20
0.0
 30
0.0
  9
$UCSORGBOTTOM
 10
0.0
 20
0.0
 30
0.0
  9
$UCSORGLEFT
 10
0.0
 20
0.0
 30
0.0
  9
$UCSORGRIGHT
 10
0.0
 20
0.0
 30
0.0
  9
$UCSORGFRONT
 10
0.0
 20
0.0
 30
0.0
  9
$UCSORGBACK
 10
0.0
 20
0.0
 30
0.0
  9
$PUCSBASE
  2

  9
$PUCSNAME
  2

  9
$PUCSORG
 10
0.0
 20
0.0
 30
0.0
  9
$PUCSXDIR
 10
1.0
 20
0.0
 30
0.0
  9
$PUCSYDIR
 10
0.0
 20
1.0
 30
0.0
  9
$PUCSORTHOREF
  2

  9
$PUCSORTHOVIEW
 70
     0
  9
$PUCSORGTOP
 10
0.0
 20
0.0
 30
0.0
  9
$PUCSORGBOTTOM
 10
0.0
 20
0.0
 30
0.0
  9
$PUCSORGLEFT
 10
0.0
 20
0.0
 30
0.0
  9
$PUCSORGRIGHT
 10
0.0
 20
0.0
 30
0.0
  9
$PUCSORGFRONT
 10
0.0
 20
0.0
 30
0.0
  9
$PUCSORGBACK
 10
0.0
 20
0.0
 30
0.0
  9
$USERI1
 70
     0
  9
$USERI2
 70
     0
  9
$USERI3
 70
     0
  9
$USERI4
 70
     0
  9
$USERI5
 70
     0
  9
$USERR1
 40
0.0
  9
$USERR2
 40
0.0
  9
$USERR3
 40
0.0
  9
$USERR4
 40
0.0
  9
$USERR5
 40
0.0
  9
$WORLDVIEW
 70
     1
  9
$SHADEDGE
 70
     3
  9
$SHADEDIF
 70
    70
  9
$TILEMODE
 70
     1
  9
$MAXACTVP
 70
    64
  9
$PINSBASE
 10
0.0
 20
0.0
 30
0.0
  9
$PLIMCHECK
 70
     0
  9
$PEXTMIN
 10
1.000000000000000E+20
 20
1.000000000000000E+20
 30
1.000000000000000E+20
  9
$PEXTMAX
 10
-1.000000000000000E+20
 20
-1.000000000000000E+20
 30
-1.000000000000000E+20
  9
$PLIMMIN
 10
0.0
 20
0.0
  9
$PLIMMAX
 10
12.0
 20
9.0
  9
$UNITMODE
 70
     0
  9
$VISRETAIN
 70
     1
  9
$PLINEGEN
 70
     0
  9
$PSLTSCALE
 70
     1
  9
$TREEDEPTH
 70
  3020
  9
$CMLSTYLE
  2
Standard
  9
$CMLJUST
 70
     0
  9
$CMLSCALE
 40
1.0
  9
$PROXYGRAPHICS
 70
     1
  9
$MEASUREMENT
 70
     0
  9
$CELWEIGHT
370
    -1
  9
$ENDCAPS
280
     0
  9
$JOINSTYLE
280
     0
  9
$LWDISPLAY
290
     0
  9
$INSUNITS
 70
     0
  9
$HYPERLINKBASE
  1

  9
$STYLESHEET
  1
MONOCHROME.CTB
  9
$XEDIT
290
     1
  9
$CEPSNTYPE
380
     0
  9
$PSTYLEMODE
290
     1
  9
$FINGERPRINTGUID
  2
{7920E308-D4AD-460E-A703-6BFCA832DA33}
  9
$VERSIONGUID
  2
{B6F30B12-158E-4CF0-A71C-AA17220F6C13}
  9
$EXTNAMES
290
     1
  9
$PSVPSCALE
 40
0.0
  9
$OLESTARTUP
290
     0
  9
$SORTENTS
280
   127
  9
$INDEXCTL
280
     0
  9
$HIDETEXT
280
     0
  9
$XCLIPFRAME
290
     0
  9
$HALOGAP
280
     0
  9
$OBSCOLOR
 70
   257
  9
$OBSLTYPE
280
     0
  9
$INTERSECTIONDISPLAY
280
     0
  9
$INTERSECTIONCOLOR
 70
   257
  9
$DIMASSOC
280
     1
  9
$PROJECTNAME
  1

  0
ENDSEC
  0
SECTION
  2
CLASSES
  0
CLASS
  1
ACDBDICTIONARYWDFLT
  2
AcDbDictionaryWithDefault
  3
ObjectDBX Classes
 90
        0
 91
        1
280
     0
281
     0
  0
CLASS
  1
TABLESTYLE
  2
AcDbTableStyle
  3
ObjectDBX Classes
 90
     4095
 91
        1
280
     0
281
     0
  0
CLASS
  1
DICTIONARYVAR
  2
AcDbDictionaryVar
  3
ObjectDBX Classes
 90
        0
 91
       11
280
     0
281
     0
  0
CLASS
  1
DIMASSOC
  2
AcDbDimAssoc
  3
"AcDbDimAssoc|Product Desc:     AcDim ARX App For Dimension|Company:          Autodesk, Inc.|WEB Address:      www.autodesk.com"
 90
        0
 91
        2
280
     0
281
     0
  0
CLASS
  1
SORTENTSTABLE
  2
AcDbSortentsTable
  3
ObjectDBX Classes
 90
        0
 91
        1
280
     0
281
     0
  0
CLASS
  1
ACAD_EVALUATION_GRAPH
  2
AcDbEvalGraph
  3
ObjectDBX Classes
 90
     1153
 91
        0
280
     0
281
     0
  0
CLASS
  1
ACAECUSTOBJ
  2
AcAeEditorObj
  3
AcAeEditorObj
 90
     1024
 91
        0
280
     0
281
     0
  0
CLASS
  1
ACDB_DYNAMICBLOCKPURGEPREVENTER_VERSION
  2
AcDbDynamicBlockPurgePreventer
  3
ObjectDBX Classes
 90
     1153
 91
        0
280
     0
281
     0
  0
CLASS
  1
ACDB_BLOCKREPRESENTATION_DATA
  2
AcDbBlockRepresentationData
  3
ObjectDBX Classes
 90
     1153
 91
        0
280
     0
281
     0
  0
CLASS
  1
MATERIAL
  2
AcDbMaterial
  3
ObjectDBX Classes
 90
     1153
 91
        3
280
     0
281
     0
  0
CLASS
  1
VISUALSTYLE
  2
AcDbVisualStyle
  3
ObjectDBX Classes
 90
     4095
 91
       24
280
     0
281
     0
  0
CLASS
  1
SCALE
  2
AcDbScale
  3
ObjectDBX Classes
 90
     1153
 91
       17
280
     0
281
     0
  0
CLASS
  1
MLEADERSTYLE
  2
AcDbMLeaderStyle
  3
ACDB_MLEADERSTYLE_CLASS
 90
     4095
 91
        1
280
     0
281
     0
  0
CLASS
  1
AEC_REFEDIT_STATUS_TRACKER
  2
AecDbRefEditStatusTracker
  3
AecArchBase60|Product Desc: Autodesk Architectural Desktop 2007 |Company: Autodesk,Inc. |WEB Address: www.autodesk.com
 90
      129
 91
        0
280
     0
281
     0
  0
CLASS
  1
NPOCOLLECTION
  2
AcDbImpNonPersistentObjectsCollection
  3
ObjectDBX Classes
 90
     1153
 91
        0
280
     0
281
     0
  0
CLASS
  1
CELLSTYLEMAP
  2
AcDbCellStyleMap
  3
ObjectDBX Classes
 90
     1152
 91
        2
280
     0
281
     0
  0
ENDSEC
  0
SECTION
  2
TABLES
  0
TABLE
  2
VPORT
  5
8
330
0
100
AcDbSymbolTable
 70
     1
  0
VPORT
  5
24CED
330
8
100
AcDbSymbolTableRecord
100
AcDbViewportTableRecord
  2
*Active
 70
     0
 10
0.0
 20
0.0
 11
1.0
 21
1.0
 12
-472.3039674679539
 22
-1675.495764298474
 13
0.0
 23
0.0
 14
1.0
 24
1.0
 15
0.0
 25
0.0
 16
0.0
 26
0.0
 36
1.0
 17
0.0
 27
0.0
 37
0.0
 40
1015.850151016532
 41
2.143051771117166
 42
50.0
 43
0.0
 44
0.0
 50
0.0
 51
0.0
 71
     0
 72
   100
 73
     1
 74
     1
 75
     0
 76
     0
 77
     0
 78
     0
281
     0
 65
     1
110
0.0
120
0.0
130
0.0
111
1.0
121
0.0
131
0.0
112
0.0
122
1.0
132
0.0
 79
     0
146
0.0
  0
ENDTAB
  0
TABLE
  2
LTYPE
  5
5
330
0
100
AcDbSymbolTable
 70
     3
  0
LTYPE
  5
13
330
5
100
AcDbSymbolTableRecord
100
AcDbLinetypeTableRecord
  2
ByBlock
 70
     0
  3

 72
    65
 73
     0
 40
0.0
  0
LTYPE
  5
14
330
5
100
AcDbSymbolTableRecord
100
AcDbLinetypeTableRecord
  2
ByLayer
 70
     0
  3

 72
    65
 73
     0
 40
0.0
  0
LTYPE
  5
15
330
5
100
AcDbSymbolTableRecord
100
AcDbLinetypeTableRecord
  2
CONTINUOUS
 70
     0
  3
Solid line
 72
    65
 73
     0
 40
0.0
  0
LTYPE
  5
2853F
330
5
100
AcDbSymbolTableRecord
100
AcDbLinetypeTableRecord
  2
ACAD_ISO04W100
 70
     0
  3
ISO long-dash dot ____ . ____ . ____ . ____ . _
 72
    65
 73
     4
 40
30.0
 49
24.0
 74
     0
 49
-3.0
 74
     0
 49
0.0
 74
     0
 49
-3.0
 74
     0
  0
LTYPE
  5
28540
330
5
100
AcDbSymbolTableRecord
100
AcDbLinetypeTableRecord
  2
HIDDEN2
 70
     0
  3
Hidden (.5x) _ _ _ _ _ _ _ _ _ _ _ _ _ _ _ _ _
 72
    65
 73
     2
 40
4.762499999999998
 49
3.174999999999998
 74
     0
 49
-1.587499999999999
 74
     0
  0
ENDTAB
  0
TABLE
  2
LAYER
  5
2
102
{ACAD_XDICTIONARY
360
CE3
102
}
330
0
100
AcDbSymbolTable
 70
     6
  0
LAYER
  5
10
102
{ACAD_XDICTIONARY
360
29093
102
}
330
2
100
AcDbSymbolTableRecord
100
AcDbLayerTableRecord
  2
0
 70
     0
 62
     7
  6
CONTINUOUS
370
    -3
390
F
  0
LAYER
  5
133
330
2
100
AcDbSymbolTableRecord
100
AcDbLayerTableRecord
  2
DEFPOINTS
 70
     0
 62
   252
  6
CONTINUOUS
290
     0
370
    -3
390
F
  0
LAYER
  5
8B2
102
{ACAD_XDICTIONARY
360
29095
102
}
330
2
100
AcDbSymbolTableRecord
100
AcDbLayerTableRecord
  2
gaikei
 70
     0
 62
     7
  6
CONTINUOUS
370
    25
390
F
  0
LAYER
  5
28541
102
{ACAD_XDICTIONARY
360
28542
102
}
330
2
100
AcDbSymbolTableRecord
100
AcDbLayerTableRecord
  2
kijun
 70
     0
 62
     1
  6
ACAD_ISO04W100
370
     9
390
F
  0
LAYER
  5
28543
102
{ACAD_XDICTIONARY
360
28544
102
}
330
2
100
AcDbSymbolTableRecord
100
AcDbLayerTableRecord
  2
sunpo
 70
     0
 62
     4
  6
CONTINUOUS
370
    15
390
F
  0
LAYER
  5
28545
102
{ACAD_XDICTIONARY
360
28546
102
}
330
2
100
AcDbSymbolTableRecord
100
AcDbLayerTableRecord
  2
hasen
 70
     0
 62
     2
  6
HIDDEN2
370
     9
390
F
  0
ENDTAB
  0
TABLE
  2
STYLE
  5
3
330
0
100
AcDbSymbolTable
 70
     2
  0
STYLE
  5
11
330
3
100
AcDbSymbolTableRecord
100
AcDbTextStyleTableRecord
  2
Standard
 70
     0
 40
0.0
 41
1.0
 50
0.0
 71
     0
 42
0.2
  3
txt
  4

  0
STYLE
  5
25
330
3
100
AcDbSymbolTableRecord
100
AcDbTextStyleTableRecord
  2
MDRAFSTD
 70
     0
 40
0.0
 41
1.0
 50
0.0
 71
     0
 42
6.0
  3
TXT
  4
BIGFONT
  0
ENDTAB
  0
TABLE
  2
VIEW
  5
6
330
0
100
AcDbSymbolTable
 70
     0
  0
ENDTAB
  0
TABLE
  2
UCS
  5
7
330
0
100
AcDbSymbolTable
 70
     0
  0
ENDTAB
  0
TABLE
  2
APPID
  5
9
330
0
100
AcDbSymbolTable
 70
    19
  0
APPID
  5
12
330
9
100
AcDbSymbolTableRecord
100
AcDbRegAppTableRecord
  2
ACAD
 70
     0
  0
APPID
  5
972
330
9
100
AcDbSymbolTableRecord
100
AcDbRegAppTableRecord
  2
ACAD_EXEMPT_FROM_CAD_STANDARDS
 70
     0
  0
APPID
  5
15E4
330
9
100
AcDbSymbolTableRecord
100
AcDbRegAppTableRecord
  2
ACAD_PSEXT
 70
     0
  0
APPID
  5
39A7
330
9
100
AcDbSymbolTableRecord
100
AcDbRegAppTableRecord
  2
ACAD_DSTYLE_DIMTEXT_FILL
 70
     0
  0
APPID
  5
39A8
330
9
100
AcDbSymbolTableRecord
100
AcDbRegAppTableRecord
  2
ACAD_DSTYLE_DIMEXT_LENGTH
 70
     0
  0
APPID
  5
39A9
330
9
100
AcDbSymbolTableRecord
100
AcDbRegAppTableRecord
  2
ACAD_DSTYLE_DIMEXT_ENABLED
 70
     0
  0
APPID
  5
39AA
330
9
100
AcDbSymbolTableRecord
100
AcDbRegAppTableRecord
  2
ACAD_DSTYLE_DIM_LINETYPE
 70
     0
  0
APPID
  5
39AB
330
9
100
AcDbSymbolTableRecord
100
AcDbRegAppTableRecord
  2
ACAD_DSTYLE_DIM_EXT1_LINETYPE
 70
     0
  0
APPID
  5
39AC
330
9
100
AcDbSymbolTableRecord
100
AcDbRegAppTableRecord
  2
ACAD_DSTYLE_DIM_EXT2_LINETYPE
 70
     0
  0
APPID
  5
3A68
330
9
100
AcDbSymbolTableRecord
100
AcDbRegAppTableRecord
  2
ACAD_DSTYLE_DIMJOGGED_JOGANGLE_SYMBOL
 70
     0
  0
APPID
  5
3ACC
330
9
100
AcDbSymbolTableRecord
100
AcDbRegAppTableRecord
  2
ACAD_DSTYLE_DIMARC_LENGTH_SYMBOL
 70
     0
  0
APPID
  5
4916
330
9
100
AcDbSymbolTableRecord
100
AcDbRegAppTableRecord
  2
DCO15
 70
     0
  0
APPID
  5
6EA4
330
9
100
AcDbSymbolTableRecord
100
AcDbRegAppTableRecord
  2
ACAUTHENVIRON
 70
     0
  0
APPID
  5
6EA8
330
9
100
AcDbSymbolTableRecord
100
AcDbRegAppTableRecord
  2
AcDbDynamicBlockTrueName
 70
     0
  0
APPID
  5
6EA9
330
9
100
AcDbSymbolTableRecord
100
AcDbRegAppTableRecord
  2
AcDbDynamicBlockGUID
 70
     0
  0
APPID
  5
6EAB
330
9
100
AcDbSymbolTableRecord
100
AcDbRegAppTableRecord
  2
AcDbBlockRepETag
 70
     0
  0
APPID
  5
FC59
330
9
100
AcDbSymbolTableRecord
100
AcDbRegAppTableRecord
  2
AcDbBlockRepBTag
 70
     0
  0
APPID
  5
28DDA
330
9
100
AcDbSymbolTableRecord
100
AcDbRegAppTableRecord
  2
ACAD_DSTYLE_DIMRADIAL_EXTENSION
 70
     0
  0
APPID
  5
28EB2
330
9
100
AcDbSymbolTableRecord
100
AcDbRegAppTableRecord
  2
ACAD_MLEADERVER
 70
     0
  0
ENDTAB
  0
TABLE
  2
DIMSTYLE
  5
A
330
0
100
AcDbSymbolTable
 70
     1
100
AcDbDimStyleTable
 71
     1
340
135
  0
DIMSTYLE
105
135
102
{ACAD_REACTORS
330
2565
330
6078
330
6080
330
6087
330
2343E
330
234BD
330
2627D
330
263ED
330
2436
330
28EED
330
28EE0
330
28ED3
330
28EFA
330
2483
330
28FCF
330
28F8E
330
28F9B
330
28FA8
330
28FB5
330
29011
330
29004
330
28FE5
330
28FC2
330
254C5
330
2906F
102
}
330
A
100
AcDbSymbolTableRecord
100
AcDbDimStyleTableRecord
  2
STANDARD
 70
     0
 40
2.0
 41
2.0
 42
1.0
 43
7.0
 44
1.0
 73
     0
 74
     0
 77
     1
 78
     8
140
3.0
147
1.0
176
     4
177
     4
178
     4
279
     2
284
     8
285
     8
286
     8
340
25
  0
ENDTAB
  0
TABLE
  2
BLOCK_RECORD
  5
1
330
0
100
AcDbSymbolTable
 70
    76
  0
BLOCK_RECORD
  5
20
102
{ACAD_XDICTIONARY
360
97B
102
}
330
1
100
AcDbSymbolTableRecord
100
AcDbBlockTableRecord
  2
*Model_Space
340
23
  0
BLOCK_RECORD
  5
1C
330
1
100
AcDbSymbolTableRecord
100
AcDbBlockTableRecord
  2
*Paper_Space
340
1F
  0
BLOCK_RECORD
  5
2687
330
1
100
AcDbSymbolTableRecord
100
AcDbBlockTableRecord
  2
*D0
340
0
  0
BLOCK_RECORD
  5
269E
330
1
100
AcDbSymbolTableRecord
100
AcDbBlockTableRecord
  2
*D1
340
0
  0
BLOCK_RECORD
  5
2864
330
1
100
AcDbSymbolTableRecord
100
AcDbBlockTableRecord
  2
*D5
340
0
  0
BLOCK_RECORD
  5
62C5
330
1
100
AcDbSymbolTableRecord
100
AcDbBlockTableRecord
  2
*D18
340
0
  0
BLOCK_RECORD
  5
62DD
330
1
100
AcDbSymbolTableRecord
100
AcDbBlockTableRecord
  2
*D20
340
0
  0
BLOCK_RECORD
  5
6579
330
1
100
AcDbSymbolTableRecord
100
AcDbBlockTableRecord
  2
*D21
340
0
  0
BLOCK_RECORD
  5
237C6
330
1
100
AcDbSymbolTableRecord
100
AcDbBlockTableRecord
  2
*D24
340
0
  0
BLOCK_RECORD
  5
23809
330
1
100
AcDbSymbolTableRecord
100
AcDbBlockTableRecord
  2
*D27
340
0
  0
BLOCK_RECORD
  5
257B3
330
1
100
AcDbSymbolTableRecord
100
AcDbBlockTableRecord
  2
*D38
340
0
  0
BLOCK_RECORD
  5
264CF
330
1
100
AcDbSymbolTableRecord
100
AcDbBlockTableRecord
  2
*D50
340
0
  0
BLOCK_RECORD
  5
2671C
330
1
100
AcDbSymbolTableRecord
100
AcDbBlockTableRecord
  2
*D52
340
0
  0
BLOCK_RECORD
  5
28ED4
330
1
100
AcDbSymbolTableRecord
100
AcDbBlockTableRecord
  2
*D62
340
0
  0
BLOCK_RECORD
  5
28EE1
330
1
100
AcDbSymbolTableRecord
100
AcDbBlockTableRecord
  2
*D63
340
0
  0
BLOCK_RECORD
  5
28EEE
330
1
100
AcDbSymbolTableRecord
100
AcDbBlockTableRecord
  2
*D64
340
0
  0
BLOCK_RECORD
  5
28EFB
330
1
100
AcDbSymbolTableRecord
100
AcDbBlockTableRecord
  2
*D65
340
0
  0
BLOCK_RECORD
  5
28F8F
330
1
100
AcDbSymbolTableRecord
100
AcDbBlockTableRecord
  2
*D66
340
0
  0
BLOCK_RECORD
  5
28F9C
330
1
100
AcDbSymbolTableRecord
100
AcDbBlockTableRecord
  2
*D67
340
0
  0
BLOCK_RECORD
  5
28FA9
330
1
100
AcDbSymbolTableRecord
100
AcDbBlockTableRecord
  2
*D68
340
0
  0
BLOCK_RECORD
  5
28FB6
330
1
100
AcDbSymbolTableRecord
100
AcDbBlockTableRecord
  2
*D69
340
0
  0
BLOCK_RECORD
  5
28FC3
330
1
100
AcDbSymbolTableRecord
100
AcDbBlockTableRecord
  2
*D70
340
0
  0
BLOCK_RECORD
  5
28FD0
330
1
100
AcDbSymbolTableRecord
100
AcDbBlockTableRecord
  2
*D71
340
0
  0
BLOCK_RECORD
  5
28FE6
330
1
100
AcDbSymbolTableRecord
100
AcDbBlockTableRecord
  2
*D72
340
0
  0
BLOCK_RECORD
  5
29005
330
1
100
AcDbSymbolTableRecord
100
AcDbBlockTableRecord
  2
*D73
340
0
  0
BLOCK_RECORD
  5
29012
330
1
100
AcDbSymbolTableRecord
100
AcDbBlockTableRecord
  2
*D74
340
0
  0
BLOCK_RECORD
  5
29070
330
1
100
AcDbSymbolTableRecord
100
AcDbBlockTableRecord
  2
*D75
340
0
  0
ENDTAB
  0
ENDSEC
  0
SECTION
  2
BLOCKS
  0
BLOCK
  5
21
330
20
100
AcDbEntity
  8
0
100
AcDbBlockBegin
  2
*Model_Space
 70
     0
 10
0.0
 20
0.0
 30
0.0
  3
*Model_Space
  1

  0
ENDBLK
  5
22
330
20
100
AcDbEntity
  8
0
100
AcDbBlockEnd
  0
BLOCK
  5
1D
330
1C
100
AcDbEntity
 67
     1
  8
0
100
AcDbBlockBegin
  2
*Paper_Space
 70
     0
 10
0.0
 20
0.0
 30
0.0
  3
*Paper_Space
  1

  0
ENDBLK
  5
1E
330
1C
100
AcDbEntity
 67
     1
  8
0
100
AcDbBlockEnd
  0
BLOCK
  5
2692
330
2687
100
AcDbEntity
  8
0
100
AcDbBlockBegin
  2
*D0
 70
     1
 10
0.0
 20
0.0
 30
0.0
  3
*D0
  1

  0
LINE
  5
28BB4
330
2687
100
AcDbEntity
  8
sunpo
 62
     4
440
 16777216
370
    -2
100
AcDbLine
 10
-1138.497443066678
 20
-1818.537217793767
 30
0.0
 11
-1173.080817050478
 21
-1818.537217793767
 31
0.0
  0
LINE
  5
28BB5
330
2687
100
AcDbEntity
  8
sunpo
 62
     4
440
 16777216
370
    -2
100
AcDbLine
 10
-1159.080817050478
 20
-1808.537217793767
 30
0.0
 11
-1173.080817050478
 21
-1808.537217793767
 31
0.0
  0
LINE
  5
28BB6
330
2687
100
AcDbEntity
  8
sunpo
 62
     4
440
 16777216
370
    -2
100
AcDbLine
 10
-1171.080817050478
 20
-1822.537217793767
 30
0.0
 11
-1171.080817050478
 21
-1826.537217793767
 31
0.0
  0
LINE
  5
28BB7
330
2687
100
AcDbEntity
  8
sunpo
 62
     4
440
 16777216
370
    -2
100
AcDbLine
 10
-1171.080817050478
 20
-1804.537217793767
 30
0.0
 11
-1171.080817050478
 21
-1800.537217793767
 31
0.0
  0
MTEXT
  5
28BB8
330
2687
100
AcDbEntity
  8
sunpo
 62
     4
440
 16777216
100
AcDbMText
 10
-1179.080817050477
 20
-1813.537217793767
 30
0.0
 40
6.0
 41
0.0
 71
     5
 72
     1
  1
\A1;１０
  7
MDRAFSTD
 11
0.0000000000000001
 21
1.0
 31
0.0
 73
     1
 44
1.0
  0
SOLID
  5
28BB9
330
2687
100
AcDbEntity
  8
sunpo
 62
     4
440
 16777216
100
AcDbTrace
 10
-1171.747483717144
 20
-1822.537217793767
 30
0.0
 11
-1170.414150383811
 21
-1822.537217793767
 31
0.0
 12
-1171.080817050478
 22
-1818.537217793767
 32
0.0
 13
-1171.080817050478
 23
-1818.537217793767
 33
0.0
  0
SOLID
  5
28BBA
330
2687
100
AcDbEntity
  8
sunpo
 62
     4
440
 16777216
100
AcDbTrace
 10
-1171.747483717144
 20
-1804.537217793767
 30
0.0
 11
-1170.414150383811
 21
-1804.537217793767
 31
0.0
 12
-1171.080817050478
 22
-1808.537217793767
 32
0.0
 13
-1171.080817050478
 23
-1808.537217793767
 33
0.0
  0
POINT
  5
28BBB
330
2687
100
AcDbEntity
  8
DEFPOINTS
 62
     0
440
 16777216
100
AcDbPoint
 10
-1136.497443066678
 20
-1818.537217793767
 30
0.0
  0
POINT
  5
28BBC
330
2687
100
AcDbEntity
  8
DEFPOINTS
 62
     0
440
 16777216
100
AcDbPoint
 10
-1157.080817050478
 20
-1808.537217793767
 30
0.0
  0
POINT
  5
28BBD
330
2687
100
AcDbEntity
  8
DEFPOINTS
 62
     0
440
 16777216
100
AcDbPoint
 10
-1171.080817050478
 20
-1808.537217793767
 30
0.0
  0
ENDBLK
  5
2693
330
2687
100
AcDbEntity
  8
0
100
AcDbBlockEnd
  0
BLOCK
  5
26A8
330
269E
100
AcDbEntity
  8
0
100
AcDbBlockBegin
  2
*D1
 70
     1
 10
0.0
 20
0.0
 30
0.0
  3
*D1
  1

  0
LINE
  5
29081
330
269E
100
AcDbEntity
  8
sunpo
 62
     4
440
 16777216
370
    -2
100
AcDbLine
 10
-947.8808170505756
 20
-1576.352628924451
 30
0.0
 11
-947.8808170505756
 21
-1447.309331812634
 31
0.0
  0
LINE
  5
29082
330
269E
100
AcDbEntity
  8
sunpo
 62
     4
440
 16777216
370
    -2
100
AcDbLine
 10
-1154.28081705038
 20
-1576.352628924451
 30
0.0
 11
-1154.28081705038
 21
-1447.309331812634
 31
0.0
  0
LINE
  5
29083
330
269E
100
AcDbEntity
  8
sunpo
 62
     4
440
 16777216
370
    -2
100
AcDbLine
 10
-951.8808170505757
 20
-1449.309331812634
 30
0.0
 11
-1150.28081705038
 21
-1449.309331812634
 31
0.0
  0
SOLID
  5
29084
330
269E
100
AcDbEntity
  8
sunpo
 62
     4
440
 16777216
100
AcDbTrace
 10
-951.8808170505757
 20
-1448.642665145968
 30
0.0
 11
-951.8808170505757
 21
-1449.975998479301
 31
0.0
 12
-947.8808170505756
 22
-1449.309331812634
 32
0.0
 13
-947.8808170505756
 23
-1449.309331812634
 33
0.0
  0
SOLID
  5
29085
330
269E
100
AcDbEntity
  8
sunpo
 62
     4
440
 16777216
100
AcDbTrace
 10
-1150.28081705038
 20
-1448.642665145968
 30
0.0
 11
-1150.28081705038
 21
-1449.975998479301
 31
0.0
 12
-1154.28081705038
 22
-1449.309331812634
 32
0.0
 13
-1154.28081705038
 23
-1449.309331812634
 33
0.0
  0
MTEXT
  5
29086
330
269E
100
AcDbEntity
  8
sunpo
 62
     4
440
 16777216
100
AcDbMText
 10
-1051.080817050478
 20
-1446.129331812634
 30
0.0
 40
6.0
 41
0.0
 71
     5
 72
     1
  1
\A1;\U+03C6206.4
  7
MDRAFSTD
 73
     1
 44
1.0
  0
POINT
  5
29087
330
269E
100
AcDbEntity
  8
DEFPOINTS
 62
     0
440
 16777216
100
AcDbPoint
 10
-947.8808170505756
 20
-1578.352628924451
 30
0.0
  0
POINT
  5
29088
330
269E
100
AcDbEntity
  8
DEFPOINTS
 62
     0
440
 16777216
100
AcDbPoint
 10
-1154.28081705038
 20
-1578.352628924451
 30
0.0
  0
POINT
  5
29089
330
269E
100
AcDbEntity
  8
DEFPOINTS
 62
     0
440
 16777216
100
AcDbPoint
 10
-1154.28081705038
 20
-1449.309331812634
 30
0.0
  0
ENDBLK
  5
26A9
330
269E
100
AcDbEntity
  8
0
100
AcDbBlockEnd
  0
BLOCK
  5
286E
330
2864
100
AcDbEntity
  8
0
100
AcDbBlockBegin
  2
*D5
 70
     1
 10
0.0
 20
0.0
 30
0.0
  3
*D5
  1

  0
LINE
  5
28ECA
330
2864
100
AcDbEntity
  8
sunpo
 62
     4
440
 16777216
370
    -2
100
AcDbLine
 10
-961.0808170504778
 20
-1507.777192375467
 30
0.0
 11
-917.880817050478
 21
-1507.777192375467
 31
0.0
  0
LINE
  5
28ECB
330
2864
100
AcDbEntity
  8
sunpo
 62
     4
440
 16777216
370
    -2
100
AcDbLine
 10
-1049.080817050478
 20
-1619.777192375467
 30
0.0
 11
-917.880817050478
 21
-1619.777192375467
 31
0.0
  0
LINE
  5
28ECC
330
2864
100
AcDbEntity
  8
sunpo
 62
     4
440
 16777216
370
    -2
100
AcDbLine
 10
-919.8808170504781
 20
-1511.777192375467
 30
0.0
 11
-919.8808170504781
 21
-1615.777192375467
 31
0.0
  0
SOLID
  5
28ECD
330
2864
100
AcDbEntity
  8
sunpo
 62
     4
440
 16777216
100
AcDbTrace
 10
-920.5474837171447
 20
-1511.777192375467
 30
0.0
 11
-919.2141503838113
 21
-1511.777192375467
 31
0.0
 12
-919.8808170504781
 22
-1507.777192375467
 32
0.0
 13
-919.8808170504781
 23
-1507.777192375467
 33
0.0
  0
SOLID
  5
28ECE
330
2864
100
AcDbEntity
  8
sunpo
 62
     4
440
 16777216
100
AcDbTrace
 10
-920.5474837171447
 20
-1615.777192375467
 30
0.0
 11
-919.2141503838113
 21
-1615.777192375467
 31
0.0
 12
-919.8808170504781
 22
-1619.777192375467
 32
0.0
 13
-919.8808170504781
 23
-1619.777192375467
 33
0.0
  0
MTEXT
  5
28ECF
330
2864
100
AcDbEntity
  8
sunpo
 62
     4
440
 16777216
100
AcDbMText
 10
-924.8808170504778
 20
-1563.777192375467
 30
0.0
 40
6.0
 41
0.0
 71
     5
 72
     1
  1
\A1;１１２
  7
MDRAFSTD
 11
0.0000000000000001
 21
1.0
 31
0.0
 73
     1
 44
1.0
  0
POINT
  5
28ED0
330
2864
100
AcDbEntity
  8
DEFPOINTS
 62
     0
440
 16777216
100
AcDbPoint
 10
-963.0808170504778
 20
-1507.777192375467
 30
0.0
  0
POINT
  5
28ED1
330
2864
100
AcDbEntity
  8
DEFPOINTS
 62
     0
440
 16777216
100
AcDbPoint
 10
-1051.080817050478
 20
-1619.777192375467
 30
0.0
  0
POINT
  5
28ED2
330
2864
100
AcDbEntity
  8
DEFPOINTS
 62
     0
440
 16777216
100
AcDbPoint
 10
-919.8808170504781
 20
-1619.777192375467
 30
0.0
  0
ENDBLK
  5
286F
330
2864
100
AcDbEntity
  8
0
100
AcDbBlockEnd
  0
BLOCK
  5
62CF
330
62C5
100
AcDbEntity
  8
0
100
AcDbBlockBegin
  2
*D18
 70
     1
 10
0.0
 20
0.0
 30
0.0
  3
*D18
  1

  0
LINE
  5
28BF8
330
62C5
100
AcDbEntity
  8
sunpo
 62
     4
440
 16777216
370
    -2
100
AcDbLine
 10
-1499.654125279508
 20
-1818.5372177938
 30
0.0
 11
-1536.560246981958
 21
-1818.5372177938
 31
0.0
  0
LINE
  5
28BF9
330
62C5
100
AcDbEntity
  8
sunpo
 62
     4
440
 16777216
370
    -2
100
AcDbLine
 10
-1497.4567101477
 20
-1808.537217793767
 30
0.0
 11
-1536.560246981958
 21
-1808.537217793767
 31
0.0
  0
LINE
  5
28BFA
330
62C5
100
AcDbEntity
  8
sunpo
 62
     4
440
 16777216
370
    -2
100
AcDbLine
 10
-1534.560246981958
 20
-1814.5372177938
 30
0.0
 11
-1534.560246981958
 21
-1812.537217793767
 31
0.0
  0
SOLID
  5
28BFB
330
62C5
100
AcDbEntity
  8
sunpo
 62
     4
440
 16777216
100
AcDbTrace
 10
-1535.226913648625
 20
-1814.5372177938
 30
0.0
 11
-1533.893580315291
 21
-1814.5372177938
 31
0.0
 12
-1534.560246981958
 22
-1818.5372177938
 32
0.0
 13
-1534.560246981958
 23
-1818.5372177938
 33
0.0
  0
SOLID
  5
28BFC
330
62C5
100
AcDbEntity
  8
sunpo
 62
     4
440
 16777216
100
AcDbTrace
 10
-1535.226913648625
 20
-1812.537217793767
 30
0.0
 11
-1533.893580315291
 21
-1812.537217793767
 31
0.0
 12
-1534.560246981958
 22
-1808.537217793767
 32
0.0
 13
-1534.560246981958
 23
-1808.537217793767
 33
0.0
  0
MTEXT
  5
28BFD
330
62C5
100
AcDbEntity
  8
sunpo
 62
     4
440
 16777216
100
AcDbMText
 10
-1537.740246981958
 20
-1813.537217793784
 30
0.0
 40
6.0
 41
0.0
 71
     5
 72
     1
  1
\A1;10
  7
MDRAFSTD
 11
0.0000000000000001
 21
1.0
 31
0.0
 73
     1
 44
1.0
  0
POINT
  5
28BFE
330
62C5
100
AcDbEntity
  8
DEFPOINTS
 62
     0
440
 16777216
100
AcDbPoint
 10
-1497.654125279508
 20
-1818.5372177938
 30
0.0
  0
POINT
  5
28BFF
330
62C5
100
AcDbEntity
  8
DEFPOINTS
 62
     0
440
 16777216
100
AcDbPoint
 10
-1495.4567101477
 20
-1808.537217793767
 30
0.0
  0
POINT
  5
28C00
330
62C5
100
AcDbEntity
  8
DEFPOINTS
 62
     0
440
 16777216
100
AcDbPoint
 10
-1534.560246981958
 20
-1808.537217793767
 30
0.0
  0
ENDBLK
  5
62D0
330
62C5
100
AcDbEntity
  8
0
100
AcDbBlockEnd
  0
BLOCK
  5
62E7
330
62DD
100
AcDbEntity
  8
0
100
AcDbBlockBegin
  2
*D20
 70
     1
 10
0.0
 20
0.0
 30
0.0
  3
*D20
  1

  0
LINE
  5
28EC1
330
62DD
100
AcDbEntity
  8
sunpo
 62
     4
440
 16777216
370
    -2
100
AcDbLine
 10
-1433.756710147701
 20
-1619.777192375467
 30
0.0
 11
-1328.0567101477
 21
-1619.777192375467
 31
0.0
  0
LINE
  5
28EC2
330
62DD
100
AcDbEntity
  8
sunpo
 62
     4
440
 16777216
370
    -2
100
AcDbLine
 10
-1371.2567101477
 20
-1512.777192375466
 30
0.0
 11
-1328.0567101477
 21
-1512.777192375466
 31
0.0
  0
LINE
  5
28EC3
330
62DD
100
AcDbEntity
  8
sunpo
 62
     4
440
 16777216
370
    -2
100
AcDbLine
 10
-1330.0567101477
 20
-1615.777192375467
 30
0.0
 11
-1330.0567101477
 21
-1516.777192375466
 31
0.0
  0
SOLID
  5
28EC4
330
62DD
100
AcDbEntity
  8
sunpo
 62
     4
440
 16777216
100
AcDbTrace
 10
-1330.723376814367
 20
-1615.777192375467
 30
0.0
 11
-1329.390043481033
 21
-1615.777192375467
 31
0.0
 12
-1330.0567101477
 22
-1619.777192375467
 32
0.0
 13
-1330.0567101477
 23
-1619.777192375467
 33
0.0
  0
SOLID
  5
28EC5
330
62DD
100
AcDbEntity
  8
sunpo
 62
     4
440
 16777216
100
AcDbTrace
 10
-1330.723376814367
 20
-1516.777192375466
 30
0.0
 11
-1329.390043481033
 21
-1516.777192375466
 31
0.0
 12
-1330.0567101477
 22
-1512.777192375466
 32
0.0
 13
-1330.0567101477
 23
-1512.777192375466
 33
0.0
  0
MTEXT
  5
28EC6
330
62DD
100
AcDbEntity
  8
sunpo
 62
     4
440
 16777216
100
AcDbMText
 10
-1333.2367101477
 20
-1566.277192375467
 30
0.0
 40
6.0
 41
0.0
 71
     5
 72
     1
  1
\A1;107
  7
MDRAFSTD
 11
0.0000000000000001
 21
1.0
 31
0.0
 73
     1
 44
1.0
  0
POINT
  5
28EC7
330
62DD
100
AcDbEntity
  8
DEFPOINTS
 62
     0
440
 16777216
100
AcDbPoint
 10
-1435.756710147701
 20
-1619.777192375467
 30
0.0
  0
POINT
  5
28EC8
330
62DD
100
AcDbEntity
  8
DEFPOINTS
 62
     0
440
 16777216
100
AcDbPoint
 10
-1373.2567101477
 20
-1512.777192375466
 30
0.0
  0
POINT
  5
28EC9
330
62DD
100
AcDbEntity
  8
DEFPOINTS
 62
     0
440
 16777216
100
AcDbPoint
 10
-1330.0567101477
 20
-1512.777192375466
 30
0.0
  0
ENDBLK
  5
62E8
330
62DD
100
AcDbEntity
  8
0
100
AcDbBlockEnd
  0
BLOCK
  5
6583
330
6579
100
AcDbEntity
  8
0
100
AcDbBlockBegin
  2
*D21
 70
     1
 10
0.0
 20
0.0
 30
0.0
  3
*D21
  1

  0
LINE
  5
28F19
330
6579
100
AcDbEntity
  8
sunpo
 62
     4
440
 16777216
370
    -2
100
AcDbLine
 10
-1514.75671014677
 20
-1565.379517969607
 30
0.0
 11
-1514.75671014677
 21
-1460.735858724244
 31
0.0
  0
LINE
  5
28F1A
330
6579
100
AcDbEntity
  8
sunpo
 62
     4
440
 16777216
370
    -2
100
AcDbLine
 10
-1356.756710148639
 20
-1565.379517969605
 30
0.0
 11
-1356.756710148639
 21
-1460.735858724244
 31
0.0
  0
LINE
  5
28F1B
330
6579
100
AcDbEntity
  8
sunpo
 62
     4
440
 16777216
370
    -2
100
AcDbLine
 10
-1510.75671014677
 20
-1462.735858724244
 30
0.0
 11
-1360.756710148639
 21
-1462.735858724244
 31
0.0
  0
SOLID
  5
28F1C
330
6579
100
AcDbEntity
  8
sunpo
 62
     4
440
 16777216
100
AcDbTrace
 10
-1510.75671014677
 20
-1462.069192057577
 30
0.0
 11
-1510.75671014677
 21
-1463.402525390911
 31
0.0
 12
-1514.75671014677
 22
-1462.735858724244
 32
0.0
 13
-1514.75671014677
 23
-1462.735858724244
 33
0.0
  0
SOLID
  5
28F1D
330
6579
100
AcDbEntity
  8
sunpo
 62
     4
440
 16777216
100
AcDbTrace
 10
-1360.756710148639
 20
-1462.069192057577
 30
0.0
 11
-1360.756710148639
 21
-1463.402525390911
 31
0.0
 12
-1356.756710148639
 22
-1462.735858724244
 32
0.0
 13
-1356.756710148639
 23
-1462.735858724244
 33
0.0
  0
MTEXT
  5
28F1E
330
6579
100
AcDbEntity
  8
sunpo
 62
     4
440
 16777216
100
AcDbMText
 10
-1435.756710147704
 20
-1459.555858724244
 30
0.0
 40
6.0
 41
0.0
 71
     5
 72
     1
  1
\A1;\U+03C6158
  7
MDRAFSTD
 73
     1
 44
1.0
  0
POINT
  5
28F1F
330
6579
100
AcDbEntity
  8
DEFPOINTS
 62
     0
440
 16777216
100
AcDbPoint
 10
-1514.75671014677
 20
-1567.379517969607
 30
0.0
  0
POINT
  5
28F20
330
6579
100
AcDbEntity
  8
DEFPOINTS
 62
     0
440
 16777216
100
AcDbPoint
 10
-1356.756710148639
 20
-1567.379517969605
 30
0.0
  0
POINT
  5
28F21
330
6579
100
AcDbEntity
  8
DEFPOINTS
 62
     0
440
 16777216
100
AcDbPoint
 10
-1356.756710148639
 20
-1462.735858724244
 30
0.0
  0
ENDBLK
  5
6584
330
6579
100
AcDbEntity
  8
0
100
AcDbBlockEnd
  0
BLOCK
  5
237D1
330
237C6
100
AcDbEntity
  8
0
100
AcDbBlockBegin
  2
*D24
 70
     1
 10
0.0
 20
0.0
 30
0.0
  3
*D24
  1

  0
LINE
  5
28B0C
330
237C6
100
AcDbEntity
  8
sunpo
 62
     4
440
 16777216
370
    -2
100
AcDbLine
 10
-717.3498297904386
 20
-1796.607904511167
 30
0.0
 11
-731.3498297904389
 21
-1796.607904511167
 31
0.0
  0
LINE
  5
28B0D
330
237C6
100
AcDbEntity
  8
sunpo
 62
     4
440
 16777216
370
    -2
100
AcDbLine
 10
-699.4004939037388
 20
-1806.607904511167
 30
0.0
 11
-731.3498297904389
 21
-1806.607904511167
 31
0.0
  0
LINE
  5
28B0E
330
237C6
100
AcDbEntity
  8
sunpo
 62
     4
440
 16777216
370
    -2
100
AcDbLine
 10
-729.3498297904386
 20
-1792.607904511167
 30
0.0
 11
-729.3498297904386
 21
-1788.607904511167
 31
0.0
  0
LINE
  5
28B0F
330
237C6
100
AcDbEntity
  8
sunpo
 62
     4
440
 16777216
370
    -2
100
AcDbLine
 10
-729.3498297904386
 20
-1810.607904511167
 30
0.0
 11
-729.3498297904386
 21
-1814.607904511167
 31
0.0
  0
MTEXT
  5
28B10
330
237C6
100
AcDbEntity
  8
sunpo
 62
     4
440
 16777216
100
AcDbMText
 10
-737.3498297904385
 20
-1801.607904511167
 30
0.0
 40
6.0
 41
0.0
 71
     5
 72
     1
  1
\A1;１０
  7
MDRAFSTD
 11
0.0000000000000001
 21
1.0
 31
0.0
 73
     1
 44
1.0
  0
SOLID
  5
28B11
330
237C6
100
AcDbEntity
  8
sunpo
 62
     4
440
 16777216
100
AcDbTrace
 10
-730.0164964571055
 20
-1792.607904511167
 30
0.0
 11
-728.6831631237722
 21
-1792.607904511167
 31
0.0
 12
-729.3498297904386
 22
-1796.607904511167
 32
0.0
 13
-729.3498297904386
 23
-1796.607904511167
 33
0.0
  0
SOLID
  5
28B12
330
237C6
100
AcDbEntity
  8
sunpo
 62
     4
440
 16777216
100
AcDbTrace
 10
-730.0164964571055
 20
-1810.607904511167
 30
0.0
 11
-728.6831631237722
 21
-1810.607904511167
 31
0.0
 12
-729.3498297904386
 22
-1806.607904511167
 32
0.0
 13
-729.3498297904386
 23
-1806.607904511167
 33
0.0
  0
POINT
  5
28B13
330
237C6
100
AcDbEntity
  8
DEFPOINTS
 62
     0
440
 16777216
100
AcDbPoint
 10
-715.3498297904389
 20
-1796.607904511167
 30
0.0
  0
POINT
  5
28B14
330
237C6
100
AcDbEntity
  8
DEFPOINTS
 62
     0
440
 16777216
100
AcDbPoint
 10
-697.4004939037388
 20
-1806.607904511167
 30
0.0
  0
POINT
  5
28B15
330
237C6
100
AcDbEntity
  8
DEFPOINTS
 62
     0
440
 16777216
100
AcDbPoint
 10
-729.3498297904386
 20
-1806.607904511167
 30
0.0
  0
ENDBLK
  5
237D2
330
237C6
100
AcDbEntity
  8
0
100
AcDbBlockEnd
  0
BLOCK
  5
23813
330
23809
100
AcDbEntity
  8
0
100
AcDbBlockBegin
  2
*D27
 70
     1
 10
0.0
 20
0.0
 30
0.0
  3
*D27
  1

  0
LINE
  5
28F4F
330
23809
100
AcDbEntity
  8
sunpo
 62
     4
440
 16777216
370
    -2
100
AcDbLine
 10
-470.8498297904388
 20
-1483.492467057867
 30
0.0
 11
-430.1498293055387
 21
-1483.492467057867
 31
0.0
  0
LINE
  5
28F50
330
23809
100
AcDbEntity
  8
sunpo
 62
     4
440
 16777216
370
    -2
100
AcDbLine
 10
-584.3498297904388
 20
-1595.492467057867
 30
0.0
 11
-430.1498293055387
 21
-1595.492467057867
 31
0.0
  0
LINE
  5
28F51
330
23809
100
AcDbEntity
  8
sunpo
 62
     4
440
 16777216
370
    -2
100
AcDbLine
 10
-432.1498293055388
 20
-1487.492467057867
 30
0.0
 11
-432.1498293055388
 21
-1591.492467057867
 31
0.0
  0
SOLID
  5
28F52
330
23809
100
AcDbEntity
  8
sunpo
 62
     4
440
 16777216
100
AcDbTrace
 10
-432.8164959722054
 20
-1487.492467057867
 30
0.0
 11
-431.4831626388721
 21
-1487.492467057867
 31
0.0
 12
-432.1498293055388
 22
-1483.492467057867
 32
0.0
 13
-432.1498293055388
 23
-1483.492467057867
 33
0.0
  0
SOLID
  5
28F53
330
23809
100
AcDbEntity
  8
sunpo
 62
     4
440
 16777216
100
AcDbTrace
 10
-432.8164959722054
 20
-1591.492467057867
 30
0.0
 11
-431.4831626388721
 21
-1591.492467057867
 31
0.0
 12
-432.1498293055388
 22
-1595.492467057867
 32
0.0
 13
-432.1498293055388
 23
-1595.492467057867
 33
0.0
  0
MTEXT
  5
28F54
330
23809
100
AcDbEntity
  8
sunpo
 62
     4
440
 16777216
100
AcDbMText
 10
-437.1498293055386
 20
-1539.492467057867
 30
0.0
 40
6.0
 41
0.0
 71
     5
 72
     1
  1
\A1;１１２
  7
MDRAFSTD
 11
0.0000000000000001
 21
1.0
 31
0.0
 73
     1
 44
1.0
  0
POINT
  5
28F55
330
23809
100
AcDbEntity
  8
DEFPOINTS
 62
     0
440
 16777216
100
AcDbPoint
 10
-472.8498297904388
 20
-1483.492467057867
 30
0.0
  0
POINT
  5
28F56
330
23809
100
AcDbEntity
  8
DEFPOINTS
 62
     0
440
 16777216
100
AcDbPoint
 10
-586.3498297904389
 20
-1595.492467057867
 30
0.0
  0
POINT
  5
28F57
330
23809
100
AcDbEntity
  8
DEFPOINTS
 62
     0
440
 16777216
100
AcDbPoint
 10
-432.1498293055388
 20
-1595.492467057867
 30
0.0
  0
ENDBLK
  5
23814
330
23809
100
AcDbEntity
  8
0
100
AcDbBlockEnd
  0
BLOCK
  5
257B4
330
257B3
100
AcDbEntity
  8
0
100
AcDbBlockBegin
  2
*D38
 70
     1
 10
0.0
 20
0.0
 30
0.0
  3
*D38
  1

  0
LINE
  5
29066
330
257B3
100
AcDbEntity
  8
sunpo
 62
     4
440
 16777216
370
    -2
100
AcDbLine
 10
298.7570926765552
 20
-1669.543173367054
 30
0.0
 11
298.7570926765552
 21
-1683.543173367054
 31
0.0
  0
LINE
  5
29067
330
257B3
100
AcDbEntity
  8
sunpo
 62
     4
440
 16777216
370
    -2
100
AcDbLine
 10
574.157092676555
 20
-1669.543173367054
 30
0.0
 11
574.157092676555
 21
-1683.543173367054
 31
0.0
  0
LINE
  5
29068
330
257B3
100
AcDbEntity
  8
sunpo
 62
     4
440
 16777216
370
    -2
100
AcDbLine
 10
302.7570926765552
 20
-1681.543173367054
 30
0.0
 11
570.157092676555
 21
-1681.543173367054
 31
0.0
  0
SOLID
  5
29069
330
257B3
100
AcDbEntity
  8
sunpo
 62
     4
440
 16777216
100
AcDbTrace
 10
302.7570926765552
 20
-1680.876506700387
 30
0.0
 11
302.7570926765552
 21
-1682.209840033721
 31
0.0
 12
298.7570926765552
 22
-1681.543173367054
 32
0.0
 13
298.7570926765552
 23
-1681.543173367054
 33
0.0
  0
SOLID
  5
2906A
330
257B3
100
AcDbEntity
  8
sunpo
 62
     4
440
 16777216
100
AcDbTrace
 10
570.157092676555
 20
-1680.876506700387
 30
0.0
 11
570.157092676555
 21
-1682.209840033721
 31
0.0
 12
574.157092676555
 22
-1681.543173367054
 32
0.0
 13
574.157092676555
 23
-1681.543173367054
 33
0.0
  0
MTEXT
  5
2906B
330
257B3
100
AcDbEntity
  8
sunpo
 62
     4
440
 16777216
100
AcDbMText
 10
436.4570926765551
 20
-1678.363173367054
 30
0.0
 40
6.0
 41
0.0
 71
     5
 72
     1
  1
\A1;\U+03C6\U+03C6275.4
  7
MDRAFSTD
 73
     1
 44
1.0
  0
POINT
  5
2906C
330
257B3
100
AcDbEntity
  8
DEFPOINTS
 62
     0
440
 16777216
100
AcDbPoint
 10
298.7570926765552
 20
-1667.543173367054
 30
0.0
  0
POINT
  5
2906D
330
257B3
100
AcDbEntity
  8
DEFPOINTS
 62
     0
440
 16777216
100
AcDbPoint
 10
574.157092676555
 20
-1667.543173367054
 30
0.0
  0
POINT
  5
2906E
330
257B3
100
AcDbEntity
  8
DEFPOINTS
 62
     0
440
 16777216
100
AcDbPoint
 10
574.157092676555
 20
-1681.543173367054
 30
0.0
  0
ENDBLK
  5
257B5
330
257B3
100
AcDbEntity
  8
0
100
AcDbBlockEnd
  0
BLOCK
  5
264D0
330
264CF
100
AcDbEntity
  8
0
100
AcDbBlockBegin
  2
*D50
 70
     1
 10
0.0
 20
0.0
 30
0.0
  3
*D50
  1

  0
LINE
  5
28986
330
264CF
100
AcDbEntity
  8
sunpo
 62
     4
440
 16777216
370
    -2
100
AcDbLine
 10
-157.8025649942899
 20
-1829.508496451964
 30
0.0
 11
-217.5480052430184
 21
-1829.508496451964
 31
0.0
  0
LINE
  5
28987
330
264CF
100
AcDbEntity
  8
sunpo
 62
     4
440
 16777216
370
    -2
100
AcDbLine
 10
-206.3859389780894
 20
-1819.508496451964
 30
0.0
 11
-217.5480052430184
 21
-1819.508496451964
 31
0.0
  0
LINE
  5
28988
330
264CF
100
AcDbEntity
  8
sunpo
 62
     4
440
 16777216
370
    -2
100
AcDbLine
 10
-215.5480052430184
 20
-1833.508496451964
 30
0.0
 11
-215.5480052430184
 21
-1837.508496451963
 31
0.0
  0
LINE
  5
28989
330
264CF
100
AcDbEntity
  8
sunpo
 62
     4
440
 16777216
370
    -2
100
AcDbLine
 10
-215.5480052430184
 20
-1815.508496451964
 30
0.0
 11
-215.5480052430184
 21
-1811.508496451964
 31
0.0
  0
MTEXT
  5
2898A
330
264CF
100
AcDbEntity
  8
sunpo
 62
     4
440
 16777216
100
AcDbMText
 10
-215.5480052430184
 20
-1824.508496451963
 30
0.0
 40
6.0
 41
0.0
 71
     5
 72
     1
  1
\A1;１０
  7
MDRAFSTD
 11
0.0000000000000001
 21
1.0
 31
0.0
 73
     1
 44
1.0
  0
SOLID
  5
2898B
330
264CF
100
AcDbEntity
  8
sunpo
 62
     4
440
 16777216
100
AcDbTrace
 10
-216.2146719096851
 20
-1833.508496451964
 30
0.0
 11
-214.8813385763518
 21
-1833.508496451964
 31
0.0
 12
-215.5480052430184
 22
-1829.508496451964
 32
0.0
 13
-215.5480052430184
 23
-1829.508496451964
 33
0.0
  0
SOLID
  5
2898C
330
264CF
100
AcDbEntity
  8
sunpo
 62
     4
440
 16777216
100
AcDbTrace
 10
-216.2146719096851
 20
-1815.508496451964
 30
0.0
 11
-214.8813385763518
 21
-1815.508496451964
 31
0.0
 12
-215.5480052430184
 22
-1819.508496451964
 32
0.0
 13
-215.5480052430184
 23
-1819.508496451964
 33
0.0
  0
POINT
  5
2898D
330
264CF
100
AcDbEntity
  8
DEFPOINTS
 62
     0
440
 16777216
100
AcDbPoint
 10
-155.8025649942899
 20
-1829.508496451964
 30
0.0
  0
POINT
  5
2898E
330
264CF
100
AcDbEntity
  8
DEFPOINTS
 62
     0
440
 16777216
100
AcDbPoint
 10
-204.3859389780894
 20
-1819.508496451964
 30
0.0
  0
POINT
  5
2898F
330
264CF
100
AcDbEntity
  8
DEFPOINTS
 62
     0
440
 16777216
100
AcDbPoint
 10
-215.5480052430184
 20
-1819.508496451964
 30
0.0
  0
ENDBLK
  5
264D1
330
264CF
100
AcDbEntity
  8
0
100
AcDbBlockEnd
  0
BLOCK
  5
2671D
330
2671C
100
AcDbEntity
  8
0
100
AcDbBlockBegin
  2
*D52
 70
     1
 10
0.0
 20
0.0
 30
0.0
  3
*D52
  1

  0
LINE
  5
28F7C
330
2671C
100
AcDbEntity
  8
sunpo
 62
     4
440
 16777216
370
    -2
100
AcDbLine
 10
27.11406102191108
 20
-1486.61764198643
 30
0.0
 11
97.91219935167262
 21
-1486.61764198643
 31
0.0
  0
LINE
  5
28F7D
330
2671C
100
AcDbEntity
  8
sunpo
 62
     4
440
 16777216
370
    -2
100
AcDbLine
 10
-68.38593897808869
 20
-1611.617641986429
 30
0.0
 11
97.9121993516726
 21
-1611.617641986429
 31
0.0
  0
LINE
  5
28F7E
330
2671C
100
AcDbEntity
  8
sunpo
 62
     4
440
 16777216
370
    -2
100
AcDbLine
 10
95.91219935167263
 20
-1490.61764198643
 30
0.0
 11
95.91219935167259
 21
-1607.617641986429
 31
0.0
  0
SOLID
  5
28F7F
330
2671C
100
AcDbEntity
  8
sunpo
 62
     4
440
 16777216
100
AcDbTrace
 10
95.24553268500595
 20
-1490.61764198643
 30
0.0
 11
96.57886601833929
 21
-1490.61764198643
 31
0.0
 12
95.91219935167263
 22
-1486.61764198643
 32
0.0
 13
95.91219935167263
 23
-1486.61764198643
 33
0.0
  0
SOLID
  5
28F80
330
2671C
100
AcDbEntity
  8
sunpo
 62
     4
440
 16777216
100
AcDbTrace
 10
95.24553268500593
 20
-1607.617641986429
 30
0.0
 11
96.57886601833927
 21
-1607.617641986429
 31
0.0
 12
95.91219935167259
 22
-1611.617641986429
 32
0.0
 13
95.91219935167259
 23
-1611.617641986429
 33
0.0
  0
MTEXT
  5
28F81
330
2671C
100
AcDbEntity
  8
sunpo
 62
     4
440
 16777216
100
AcDbMText
 10
90.91219935167286
 20
-1549.117641986429
 30
0.0
 40
6.0
 41
0.0
 71
     5
 72
     1
  1
\A1;125
  7
MDRAFSTD
 11
0.0000000000000001
 21
1.0
 31
0.0
 73
     1
 44
1.0
  0
POINT
  5
28F82
330
2671C
100
AcDbEntity
  8
DEFPOINTS
 62
     0
440
 16777216
100
AcDbPoint
 10
25.11406102191108
 20
-1486.61764198643
 30
0.0
  0
POINT
  5
28F83
330
2671C
100
AcDbEntity
  8
DEFPOINTS
 62
     0
440
 16777216
100
AcDbPoint
 10
-70.38593897808869
 20
-1611.617641986429
 30
0.0
  0
POINT
  5
28F84
330
2671C
100
AcDbEntity
  8
DEFPOINTS
 62
     0
440
 16777216
100
AcDbPoint
 10
95.91219935167259
 20
-1611.617641986429
 30
0.0
  0
ENDBLK
  5
2671E
330
2671C
100
AcDbEntity
  8
0
100
AcDbBlockEnd
  0
BLOCK
  5
28ED5
330
28ED4
100
AcDbEntity
  8
0
100
AcDbBlockBegin
  2
*D62
 70
     1
 10
0.0
 20
0.0
 30
0.0
  3
*D62
  1

  0
LINE
  5
28F34
330
28ED4
100
AcDbEntity
  8
sunpo
 62
     4
440
 16777216
370
    -2
100
AcDbLine
 10
-1154.280817050477
 20
-1659.507981206014
 30
0.0
 11
-1154.280817050477
 21
-1679.307114209513
 31
0.0
  0
LINE
  5
28F35
330
28ED4
100
AcDbEntity
  8
sunpo
 62
     4
440
 16777216
370
    -2
100
AcDbLine
 10
-947.8808170505347
 20
-1659.507981205967
 30
0.0
 11
-947.8808170505347
 21
-1679.307114209513
 31
0.0
  0
LINE
  5
28F36
330
28ED4
100
AcDbEntity
  8
sunpo
 62
     4
440
 16777216
370
    -2
100
AcDbLine
 10
-1150.280817050477
 20
-1677.307114209513
 30
0.0
 11
-951.8808170505346
 21
-1677.307114209513
 31
0.0
  0
SOLID
  5
28F37
330
28ED4
100
AcDbEntity
  8
sunpo
 62
     4
440
 16777216
100
AcDbTrace
 10
-1150.280817050477
 20
-1676.640447542846
 30
0.0
 11
-1150.280817050477
 21
-1677.97378087618
 31
0.0
 12
-1154.280817050477
 22
-1677.307114209513
 32
0.0
 13
-1154.280817050477
 23
-1677.307114209513
 33
0.0
  0
SOLID
  5
28F38
330
28ED4
100
AcDbEntity
  8
sunpo
 62
     4
440
 16777216
100
AcDbTrace
 10
-951.8808170505346
 20
-1676.640447542846
 30
0.0
 11
-951.8808170505346
 21
-1677.97378087618
 31
0.0
 12
-947.8808170505347
 22
-1677.307114209513
 32
0.0
 13
-947.8808170505347
 23
-1677.307114209513
 33
0.0
  0
MTEXT
  5
28F39
330
28ED4
100
AcDbEntity
  8
sunpo
 62
     4
440
 16777216
100
AcDbMText
 10
-1051.080817050506
 20
-1674.127114209513
 30
0.0
 40
6.0
 41
0.0
 71
     5
 72
     1
  1
\A1;\U+03C6206.4
  7
MDRAFSTD
 73
     1
 44
1.0
  0
POINT
  5
28F3A
330
28ED4
100
AcDbEntity
  8
DEFPOINTS
 62
     0
440
 16777216
100
AcDbPoint
 10
-1154.280817050477
 20
-1657.507981206014
 30
0.0
  0
POINT
  5
28F3B
330
28ED4
100
AcDbEntity
  8
DEFPOINTS
 62
     0
440
 16777216
100
AcDbPoint
 10
-947.8808170505347
 20
-1657.507981205967
 30
0.0
  0
POINT
  5
28F3C
330
28ED4
100
AcDbEntity
  8
DEFPOINTS
 62
     0
440
 16777216
100
AcDbPoint
 10
-947.8808170505347
 20
-1677.307114209513
 30
0.0
  0
ENDBLK
  5
28ED6
330
28ED4
100
AcDbEntity
  8
0
100
AcDbBlockEnd
  0
BLOCK
  5
28EE2
330
28EE1
100
AcDbEntity
  8
0
100
AcDbBlockBegin
  2
*D63
 70
     1
 10
0.0
 20
0.0
 30
0.0
  3
*D63
  1

  0
LINE
  5
28F2B
330
28EE1
100
AcDbEntity
  8
sunpo
 62
     4
440
 16777216
370
    -2
100
AcDbLine
 10
-1513.4567101477
 20
-1642.81588221345
 30
0.0
 11
-1513.4567101477
 21
-1667.925732530872
 31
0.0
  0
LINE
  5
28F2C
330
28EE1
100
AcDbEntity
  8
sunpo
 62
     4
440
 16777216
370
    -2
100
AcDbLine
 10
-1358.056710147701
 20
-1642.815882213459
 30
0.0
 11
-1358.056710147701
 21
-1667.925732530872
 31
0.0
  0
LINE
  5
28F2D
330
28EE1
100
AcDbEntity
  8
sunpo
 62
     4
440
 16777216
370
    -2
100
AcDbLine
 10
-1509.4567101477
 20
-1665.925732530872
 30
0.0
 11
-1362.056710147701
 21
-1665.925732530872
 31
0.0
  0
SOLID
  5
28F2E
330
28EE1
100
AcDbEntity
  8
sunpo
 62
     4
440
 16777216
100
AcDbTrace
 10
-1509.4567101477
 20
-1665.259065864205
 30
0.0
 11
-1509.4567101477
 21
-1666.592399197538
 31
0.0
 12
-1513.4567101477
 22
-1665.925732530872
 32
0.0
 13
-1513.4567101477
 23
-1665.925732530872
 33
0.0
  0
SOLID
  5
28F2F
330
28EE1
100
AcDbEntity
  8
sunpo
 62
     4
440
 16777216
100
AcDbTrace
 10
-1362.056710147701
 20
-1665.259065864205
 30
0.0
 11
-1362.056710147701
 21
-1666.592399197538
 31
0.0
 12
-1358.056710147701
 22
-1665.925732530872
 32
0.0
 13
-1358.056710147701
 23
-1665.925732530872
 33
0.0
  0
MTEXT
  5
28F30
330
28EE1
100
AcDbEntity
  8
sunpo
 62
     4
440
 16777216
100
AcDbMText
 10
-1435.7567101477
 20
-1662.745732530872
 30
0.0
 40
6.0
 41
0.0
 71
     5
 72
     1
  1
\A1;\U+03C6155.4
  7
MDRAFSTD
 73
     1
 44
1.0
  0
POINT
  5
28F31
330
28EE1
100
AcDbEntity
  8
DEFPOINTS
 62
     0
440
 16777216
100
AcDbPoint
 10
-1513.4567101477
 20
-1640.81588221345
 30
0.0
  0
POINT
  5
28F32
330
28EE1
100
AcDbEntity
  8
DEFPOINTS
 62
     0
440
 16777216
100
AcDbPoint
 10
-1358.056710147701
 20
-1640.815882213459
 30
0.0
  0
POINT
  5
28F33
330
28EE1
100
AcDbEntity
  8
DEFPOINTS
 62
     0
440
 16777216
100
AcDbPoint
 10
-1358.056710147701
 20
-1665.925732530872
 30
0.0
  0
ENDBLK
  5
28EE3
330
28EE1
100
AcDbEntity
  8
0
100
AcDbBlockEnd
  0
BLOCK
  5
28EEF
330
28EEE
100
AcDbEntity
  8
0
100
AcDbBlockBegin
  2
*D64
 70
     1
 10
0.0
 20
0.0
 30
0.0
  3
*D64
  1

  0
LINE
  5
28F22
330
28EEE
100
AcDbEntity
  8
sunpo
 62
     4
440
 16777216
370
    -2
100
AcDbLine
 10
-1493.2567101477
 20
-1510.777192375466
 30
0.0
 11
-1493.2567101477
 21
-1478.305954501893
 31
0.0
  0
LINE
  5
28F23
330
28EEE
100
AcDbEntity
  8
sunpo
 62
     4
440
 16777216
370
    -2
100
AcDbLine
 10
-1378.2567101477
 20
-1510.777192375466
 30
0.0
 11
-1378.2567101477
 21
-1478.305954501893
 31
0.0
  0
LINE
  5
28F24
330
28EEE
100
AcDbEntity
  8
sunpo
 62
     4
440
 16777216
370
    -2
100
AcDbLine
 10
-1489.2567101477
 20
-1480.305954501893
 30
0.0
 11
-1382.2567101477
 21
-1480.305954501893
 31
0.0
  0
SOLID
  5
28F25
330
28EEE
100
AcDbEntity
  8
sunpo
 62
     4
440
 16777216
100
AcDbTrace
 10
-1489.2567101477
 20
-1479.639287835226
 30
0.0
 11
-1489.2567101477
 21
-1480.972621168559
 31
0.0
 12
-1493.2567101477
 22
-1480.305954501893
 32
0.0
 13
-1493.2567101477
 23
-1480.305954501893
 33
0.0
  0
SOLID
  5
28F26
330
28EEE
100
AcDbEntity
  8
sunpo
 62
     4
440
 16777216
100
AcDbTrace
 10
-1382.2567101477
 20
-1479.639287835226
 30
0.0
 11
-1382.2567101477
 21
-1480.972621168559
 31
0.0
 12
-1378.2567101477
 22
-1480.305954501893
 32
0.0
 13
-1378.2567101477
 23
-1480.305954501893
 33
0.0
  0
MTEXT
  5
28F27
330
28EEE
100
AcDbEntity
  8
sunpo
 62
     4
440
 16777216
100
AcDbMText
 10
-1435.7567101477
 20
-1477.125954501892
 30
0.0
 40
6.0
 41
0.0
 71
     5
 72
     1
  1
\A1;\U+03C6115
  7
MDRAFSTD
 73
     1
 44
1.0
  0
POINT
  5
28F28
330
28EEE
100
AcDbEntity
  8
DEFPOINTS
 62
     0
440
 16777216
100
AcDbPoint
 10
-1493.2567101477
 20
-1512.777192375466
 30
0.0
  0
POINT
  5
28F29
330
28EEE
100
AcDbEntity
  8
DEFPOINTS
 62
     0
440
 16777216
100
AcDbPoint
 10
-1378.2567101477
 20
-1512.777192375466
 30
0.0
  0
POINT
  5
28F2A
330
28EEE
100
AcDbEntity
  8
DEFPOINTS
 62
     0
440
 16777216
100
AcDbPoint
 10
-1378.2567101477
 20
-1480.305954501893
 30
0.0
  0
ENDBLK
  5
28EF0
330
28EEE
100
AcDbEntity
  8
0
100
AcDbBlockEnd
  0
BLOCK
  5
28EFC
330
28EFB
100
AcDbEntity
  8
0
100
AcDbBlockBegin
  2
*D65
 70
     1
 10
0.0
 20
0.0
 30
0.0
  3
*D65
  1

  0
LINE
  5
2908A
330
28EFB
100
AcDbEntity
  8
sunpo
 62
     4
440
 16777216
370
    -2
100
AcDbLine
 10
-1134.080817050478
 20
-1505.777192375467
 30
0.0
 11
-1134.080817050478
 21
-1467.555935378075
 31
0.0
  0
LINE
  5
2908B
330
28EFB
100
AcDbEntity
  8
sunpo
 62
     4
440
 16777216
370
    -2
100
AcDbLine
 10
-968.080817050478
 20
-1505.777192375467
 30
0.0
 11
-968.080817050478
 21
-1467.555935378075
 31
0.0
  0
LINE
  5
2908C
330
28EFB
100
AcDbEntity
  8
sunpo
 62
     4
440
 16777216
370
    -2
100
AcDbLine
 10
-1130.080817050478
 20
-1469.555935378075
 30
0.0
 11
-972.0808170504779
 21
-1469.555935378075
 31
0.0
  0
SOLID
  5
2908D
330
28EFB
100
AcDbEntity
  8
sunpo
 62
     4
440
 16777216
100
AcDbTrace
 10
-1130.080817050478
 20
-1468.889268711408
 30
0.0
 11
-1130.080817050478
 21
-1470.222602044741
 31
0.0
 12
-1134.080817050478
 22
-1469.555935378075
 32
0.0
 13
-1134.080817050478
 23
-1469.555935378075
 33
0.0
  0
SOLID
  5
2908E
330
28EFB
100
AcDbEntity
  8
sunpo
 62
     4
440
 16777216
100
AcDbTrace
 10
-972.0808170504779
 20
-1468.889268711408
 30
0.0
 11
-972.0808170504779
 21
-1470.222602044741
 31
0.0
 12
-968.080817050478
 22
-1469.555935378075
 32
0.0
 13
-968.080817050478
 23
-1469.555935378075
 33
0.0
  0
MTEXT
  5
2908F
330
28EFB
100
AcDbEntity
  8
sunpo
 62
     4
440
 16777216
100
AcDbMText
 10
-1051.080817050478
 20
-1466.375935378075
 30
0.0
 40
6.0
 41
0.0
 71
     5
 72
     1
  1
\A1;\U+03C6166
  7
MDRAFSTD
 73
     1
 44
1.0
  0
POINT
  5
29090
330
28EFB
100
AcDbEntity
  8
DEFPOINTS
 62
     0
440
 16777216
100
AcDbPoint
 10
-1134.080817050478
 20
-1507.777192375467
 30
0.0
  0
POINT
  5
29091
330
28EFB
100
AcDbEntity
  8
DEFPOINTS
 62
     0
440
 16777216
100
AcDbPoint
 10
-968.080817050478
 20
-1507.777192375467
 30
0.0
  0
POINT
  5
29092
330
28EFB
100
AcDbEntity
  8
DEFPOINTS
 62
     0
440
 16777216
100
AcDbPoint
 10
-968.080817050478
 20
-1469.555935378075
 30
0.0
  0
ENDBLK
  5
28EFD
330
28EFB
100
AcDbEntity
  8
0
100
AcDbBlockEnd
  0
BLOCK
  5
28F90
330
28F8F
100
AcDbEntity
  8
0
100
AcDbBlockBegin
  2
*D66
 70
     1
 10
0.0
 20
0.0
 30
0.0
  3
*D66
  1

  0
LINE
  5
2901E
330
28F8F
100
AcDbEntity
  8
sunpo
 62
     4
440
 16777216
370
    -2
100
AcDbLine
 10
-712.5498297907388
 20
-1566.068764085667
 30
0.0
 11
-712.5498297907388
 21
-1443.779619851999
 31
0.0
  0
LINE
  5
2901F
330
28F8F
100
AcDbEntity
  8
sunpo
 62
     4
440
 16777216
370
    -2
100
AcDbLine
 10
-460.1498297909363
 20
-1566.068764085721
 30
0.0
 11
-460.1498297909363
 21
-1443.779619851999
 31
0.0
  0
LINE
  5
29020
330
28F8F
100
AcDbEntity
  8
sunpo
 62
     4
440
 16777216
370
    -2
100
AcDbLine
 10
-708.5498297907388
 20
-1445.779619851999
 30
0.0
 11
-464.1498297909363
 21
-1445.779619851999
 31
0.0
  0
SOLID
  5
29021
330
28F8F
100
AcDbEntity
  8
sunpo
 62
     4
440
 16777216
100
AcDbTrace
 10
-708.5498297907388
 20
-1445.112953185332
 30
0.0
 11
-708.5498297907388
 21
-1446.446286518666
 31
0.0
 12
-712.5498297907388
 22
-1445.779619851999
 32
0.0
 13
-712.5498297907388
 23
-1445.779619851999
 33
0.0
  0
SOLID
  5
29022
330
28F8F
100
AcDbEntity
  8
sunpo
 62
     4
440
 16777216
100
AcDbTrace
 10
-464.1498297909363
 20
-1445.112953185332
 30
0.0
 11
-464.1498297909363
 21
-1446.446286518666
 31
0.0
 12
-460.1498297909363
 22
-1445.779619851999
 32
0.0
 13
-460.1498297909363
 23
-1445.779619851999
 33
0.0
  0
MTEXT
  5
29023
330
28F8F
100
AcDbEntity
  8
sunpo
 62
     4
440
 16777216
100
AcDbMText
 10
-586.3498297908376
 20
-1442.599619851999
 30
0.0
 40
6.0
 41
0.0
 71
     5
 72
     1
  1
\A1;\U+03C6252.4
  7
MDRAFSTD
 73
     1
 44
1.0
  0
POINT
  5
29024
330
28F8F
100
AcDbEntity
  8
DEFPOINTS
 62
     0
440
 16777216
100
AcDbPoint
 10
-712.5498297907388
 20
-1568.068764085667
 30
0.0
  0
POINT
  5
29025
330
28F8F
100
AcDbEntity
  8
DEFPOINTS
 62
     0
440
 16777216
100
AcDbPoint
 10
-460.1498297909363
 20
-1568.068764085721
 30
0.0
  0
POINT
  5
29026
330
28F8F
100
AcDbEntity
  8
DEFPOINTS
 62
     0
440
 16777216
100
AcDbPoint
 10
-460.1498297909363
 20
-1445.779619851999
 30
0.0
  0
ENDBLK
  5
28F91
330
28F8F
100
AcDbEntity
  8
0
100
AcDbBlockEnd
  0
BLOCK
  5
28F9D
330
28F9C
100
AcDbEntity
  8
0
100
AcDbBlockBegin
  2
*D67
 70
     1
 10
0.0
 20
0.0
 30
0.0
  3
*D67
  1

  0
LINE
  5
29027
330
28F9C
100
AcDbEntity
  8
sunpo
 62
     4
440
 16777216
370
    -2
100
AcDbLine
 10
-694.8498297904386
 20
-1481.492467057867
 30
0.0
 11
-694.8498297904386
 21
-1461.429478241051
 31
0.0
  0
LINE
  5
29028
330
28F9C
100
AcDbEntity
  8
sunpo
 62
     4
440
 16777216
370
    -2
100
AcDbLine
 10
-477.8498297904388
 20
-1481.492467057867
 30
0.0
 11
-477.8498297904388
 21
-1461.429478241051
 31
0.0
  0
LINE
  5
29029
330
28F9C
100
AcDbEntity
  8
sunpo
 62
     4
440
 16777216
370
    -2
100
AcDbLine
 10
-690.8498297904387
 20
-1463.429478241051
 30
0.0
 11
-481.8498297904388
 21
-1463.429478241051
 31
0.0
  0
SOLID
  5
2902A
330
28F9C
100
AcDbEntity
  8
sunpo
 62
     4
440
 16777216
100
AcDbTrace
 10
-690.8498297904387
 20
-1462.762811574384
 30
0.0
 11
-690.8498297904387
 21
-1464.096144907718
 31
0.0
 12
-694.8498297904386
 22
-1463.429478241051
 32
0.0
 13
-694.8498297904386
 23
-1463.429478241051
 33
0.0
  0
SOLID
  5
2902B
330
28F9C
100
AcDbEntity
  8
sunpo
 62
     4
440
 16777216
100
AcDbTrace
 10
-481.8498297904388
 20
-1462.762811574384
 30
0.0
 11
-481.8498297904388
 21
-1464.096144907718
 31
0.0
 12
-477.8498297904388
 22
-1463.429478241051
 32
0.0
 13
-477.8498297904388
 23
-1463.429478241051
 33
0.0
  0
MTEXT
  5
2902C
330
28F9C
100
AcDbEntity
  8
sunpo
 62
     4
440
 16777216
100
AcDbMText
 10
-586.3498297904388
 20
-1460.249478241051
 30
0.0
 40
6.0
 41
0.0
 71
     5
 72
     1
  1
\A1;\U+03C6217
  7
MDRAFSTD
 73
     1
 44
1.0
  0
POINT
  5
2902D
330
28F9C
100
AcDbEntity
  8
DEFPOINTS
 62
     0
440
 16777216
100
AcDbPoint
 10
-694.8498297904386
 20
-1483.492467057867
 30
0.0
  0
POINT
  5
2902E
330
28F9C
100
AcDbEntity
  8
DEFPOINTS
 62
     0
440
 16777216
100
AcDbPoint
 10
-477.8498297904388
 20
-1483.492467057867
 30
0.0
  0
POINT
  5
2902F
330
28F9C
100
AcDbEntity
  8
DEFPOINTS
 62
     0
440
 16777216
100
AcDbPoint
 10
-477.8498297904388
 20
-1463.429478241051
 30
0.0
  0
ENDBLK
  5
28F9E
330
28F9C
100
AcDbEntity
  8
0
100
AcDbBlockEnd
  0
BLOCK
  5
28FAA
330
28FA9
100
AcDbEntity
  8
0
100
AcDbBlockBegin
  2
*D68
 70
     1
 10
0.0
 20
0.0
 30
0.0
  3
*D68
  1

  0
LINE
  5
29030
330
28FA9
100
AcDbEntity
  8
sunpo
 62
     4
440
 16777216
370
    -2
100
AcDbLine
 10
-712.5498297904388
 20
-1659.138209397102
 30
0.0
 11
-712.5498297904388
 21
-1663.986195351927
 31
0.0
  0
LINE
  5
29031
330
28FA9
100
AcDbEntity
  8
sunpo
 62
     4
440
 16777216
370
    -2
100
AcDbLine
 10
-460.1498297904388
 20
-1659.170005005567
 30
0.0
 11
-460.1498297904388
 21
-1663.986195351927
 31
0.0
  0
LINE
  5
29032
330
28FA9
100
AcDbEntity
  8
sunpo
 62
     4
440
 16777216
370
    -2
100
AcDbLine
 10
-708.5498297904388
 20
-1661.986195351927
 30
0.0
 11
-464.1498297904388
 21
-1661.986195351927
 31
0.0
  0
SOLID
  5
29033
330
28FA9
100
AcDbEntity
  8
sunpo
 62
     4
440
 16777216
100
AcDbTrace
 10
-708.5498297904388
 20
-1661.31952868526
 30
0.0
 11
-708.5498297904388
 21
-1662.652862018594
 31
0.0
 12
-712.5498297904388
 22
-1661.986195351927
 32
0.0
 13
-712.5498297904388
 23
-1661.986195351927
 33
0.0
  0
SOLID
  5
29034
330
28FA9
100
AcDbEntity
  8
sunpo
 62
     4
440
 16777216
100
AcDbTrace
 10
-464.1498297904388
 20
-1661.31952868526
 30
0.0
 11
-464.1498297904388
 21
-1662.652862018594
 31
0.0
 12
-460.1498297904388
 22
-1661.986195351927
 32
0.0
 13
-460.1498297904388
 23
-1661.986195351927
 33
0.0
  0
MTEXT
  5
29035
330
28FA9
100
AcDbEntity
  8
sunpo
 62
     4
440
 16777216
100
AcDbMText
 10
-586.3498297904389
 20
-1658.806195351927
 30
0.0
 40
6.0
 41
0.0
 71
     5
 72
     1
  1
\A1;\U+03C6252.4
  7
MDRAFSTD
 73
     1
 44
1.0
  0
POINT
  5
29036
330
28FA9
100
AcDbEntity
  8
DEFPOINTS
 62
     0
440
 16777216
100
AcDbPoint
 10
-712.5498297904388
 20
-1657.138209397103
 30
0.0
  0
POINT
  5
29037
330
28FA9
100
AcDbEntity
  8
DEFPOINTS
 62
     0
440
 16777216
100
AcDbPoint
 10
-460.1498297904388
 20
-1657.170005005567
 30
0.0
  0
POINT
  5
29038
330
28FA9
100
AcDbEntity
  8
DEFPOINTS
 62
     0
440
 16777216
100
AcDbPoint
 10
-460.1498297904388
 20
-1661.986195351927
 30
0.0
  0
ENDBLK
  5
28FAB
330
28FA9
100
AcDbEntity
  8
0
100
AcDbBlockEnd
  0
BLOCK
  5
28FB7
330
28FB6
100
AcDbEntity
  8
0
100
AcDbBlockBegin
  2
*D69
 70
     1
 10
0.0
 20
0.0
 30
0.0
  3
*D69
  1

  0
LINE
  5
29039
330
28FB6
100
AcDbEntity
  8
sunpo
 62
     4
440
 16777216
370
    -2
100
AcDbLine
 10
-196.5859389780887
 20
-1678.625642342016
 30
0.0
 11
-196.5859389780887
 21
-1684.266939234993
 31
0.0
  0
LINE
  5
2903A
330
28FB6
100
AcDbEntity
  8
sunpo
 62
     4
440
 16777216
370
    -2
100
AcDbLine
 10
55.81406102190999
 20
-1678.625642342016
 30
0.0
 11
55.81406102190999
 21
-1684.266939234993
 31
0.0
  0
LINE
  5
2903B
330
28FB6
100
AcDbEntity
  8
sunpo
 62
     4
440
 16777216
370
    -2
100
AcDbLine
 10
-192.5859389780887
 20
-1682.266939234993
 30
0.0
 11
51.81406102190999
 21
-1682.266939234993
 31
0.0
  0
SOLID
  5
2903C
330
28FB6
100
AcDbEntity
  8
sunpo
 62
     4
440
 16777216
100
AcDbTrace
 10
-192.5859389780887
 20
-1681.600272568326
 30
0.0
 11
-192.5859389780887
 21
-1682.933605901659
 31
0.0
 12
-196.5859389780887
 22
-1682.266939234993
 32
0.0
 13
-196.5859389780887
 23
-1682.266939234993
 33
0.0
  0
SOLID
  5
2903D
330
28FB6
100
AcDbEntity
  8
sunpo
 62
     4
440
 16777216
100
AcDbTrace
 10
51.81406102190999
 20
-1681.600272568326
 30
0.0
 11
51.81406102190999
 21
-1682.933605901659
 31
0.0
 12
55.81406102190999
 22
-1682.266939234993
 32
0.0
 13
55.81406102190999
 23
-1682.266939234993
 33
0.0
  0
MTEXT
  5
2903E
330
28FB6
100
AcDbEntity
  8
sunpo
 62
     4
440
 16777216
100
AcDbMText
 10
-70.38593897808934
 20
-1679.086939234993
 30
0.0
 40
6.0
 41
0.0
 71
     5
 72
     1
  1
\A1;\U+03C6252.4
  7
MDRAFSTD
 73
     1
 44
1.0
  0
POINT
  5
2903F
330
28FB6
100
AcDbEntity
  8
DEFPOINTS
 62
     0
440
 16777216
100
AcDbPoint
 10
-196.5859389780887
 20
-1676.625642342016
 30
0.0
  0
POINT
  5
29040
330
28FB6
100
AcDbEntity
  8
DEFPOINTS
 62
     0
440
 16777216
100
AcDbPoint
 10
55.81406102190999
 20
-1676.625642342016
 30
0.0
  0
POINT
  5
29041
330
28FB6
100
AcDbEntity
  8
DEFPOINTS
 62
     0
440
 16777216
100
AcDbPoint
 10
55.81406102190999
 20
-1682.266939234993
 30
0.0
  0
ENDBLK
  5
28FB8
330
28FB6
100
AcDbEntity
  8
0
100
AcDbBlockEnd
  0
BLOCK
  5
28FC4
330
28FC3
100
AcDbEntity
  8
0
100
AcDbBlockBegin
  2
*D70
 70
     1
 10
0.0
 20
0.0
 30
0.0
  3
*D70
  1

  0
LINE
  5
2905D
330
28FC3
100
AcDbEntity
  8
sunpo
 62
     4
440
 16777216
370
    -2
100
AcDbLine
 10
316.9570926765552
 20
-1475.021452808454
 30
0.0
 11
316.9570926765552
 21
-1455.115645296159
 31
0.0
  0
LINE
  5
2905E
330
28FC3
100
AcDbEntity
  8
sunpo
 62
     4
440
 16777216
370
    -2
100
AcDbLine
 10
555.9570926765551
 20
-1475.021452808454
 30
0.0
 11
555.9570926765551
 21
-1455.115645296159
 31
0.0
  0
LINE
  5
2905F
330
28FC3
100
AcDbEntity
  8
sunpo
 62
     4
440
 16777216
370
    -2
100
AcDbLine
 10
320.9570926765552
 20
-1457.115645296159
 30
0.0
 11
551.9570926765551
 21
-1457.115645296159
 31
0.0
  0
SOLID
  5
29060
330
28FC3
100
AcDbEntity
  8
sunpo
 62
     4
440
 16777216
100
AcDbTrace
 10
320.9570926765552
 20
-1456.448978629493
 30
0.0
 11
320.9570926765552
 21
-1457.782311962826
 31
0.0
 12
316.9570926765552
 22
-1457.115645296159
 32
0.0
 13
316.9570926765552
 23
-1457.115645296159
 33
0.0
  0
SOLID
  5
29061
330
28FC3
100
AcDbEntity
  8
sunpo
 62
     4
440
 16777216
100
AcDbTrace
 10
551.9570926765551
 20
-1456.448978629493
 30
0.0
 11
551.9570926765551
 21
-1457.782311962826
 31
0.0
 12
555.9570926765551
 22
-1457.115645296159
 32
0.0
 13
555.9570926765551
 23
-1457.115645296159
 33
0.0
  0
MTEXT
  5
29062
330
28FC3
100
AcDbEntity
  8
sunpo
 62
     4
440
 16777216
100
AcDbMText
 10
436.4570926765551
 20
-1453.935645296159
 30
0.0
 40
6.0
 41
0.0
 71
     5
 72
     1
  1
\A1;\U+03C6239
  7
MDRAFSTD
 73
     1
 44
1.0
  0
POINT
  5
29063
330
28FC3
100
AcDbEntity
  8
DEFPOINTS
 62
     0
440
 16777216
100
AcDbPoint
 10
316.9570926765552
 20
-1477.021452808454
 30
0.0
  0
POINT
  5
29064
330
28FC3
100
AcDbEntity
  8
DEFPOINTS
 62
     0
440
 16777216
100
AcDbPoint
 10
555.9570926765551
 20
-1477.021452808454
 30
0.0
  0
POINT
  5
29065
330
28FC3
100
AcDbEntity
  8
DEFPOINTS
 62
     0
440
 16777216
100
AcDbPoint
 10
555.9570926765551
 20
-1457.115645296159
 30
0.0
  0
ENDBLK
  5
28FC5
330
28FC3
100
AcDbEntity
  8
0
100
AcDbBlockEnd
  0
BLOCK
  5
28FD1
330
28FD0
100
AcDbEntity
  8
0
100
AcDbBlockBegin
  2
*D71
 70
     1
 10
0.0
 20
0.0
 30
0.0
  3
*D71
  1

  0
LINE
  5
28FD3
330
28FD0
100
AcDbEntity
  8
sunpo
 62
     4
440
 16777216
370
    -2
100
AcDbLine
 10
562.9570926765551
 20
-1477.021452808454
 30
0.0
 11
612.0739211450036
 21
-1477.021452808454
 31
0.0
  0
LINE
  5
28FD4
330
28FD0
100
AcDbEntity
  8
sunpo
 62
     4
440
 16777216
370
    -2
100
AcDbLine
 10
438.457092676555
 20
-1589.021452681254
 30
0.0
 11
612.0739211450036
 21
-1589.021452681254
 31
0.0
  0
LINE
  5
28FD5
330
28FD0
100
AcDbEntity
  8
sunpo
 62
     4
440
 16777216
370
    -2
100
AcDbLine
 10
610.0739211450036
 20
-1481.021452808454
 30
0.0
 11
610.0739211450036
 21
-1585.021452681254
 31
0.0
  0
SOLID
  5
28FD6
330
28FD0
100
AcDbEntity
  8
sunpo
 62
     4
440
 16777216
100
AcDbTrace
 10
609.407254478337
 20
-1481.021452808454
 30
0.0
 11
610.7405878116702
 21
-1481.021452808454
 31
0.0
 12
610.0739211450036
 22
-1477.021452808454
 32
0.0
 13
610.0739211450036
 23
-1477.021452808454
 33
0.0
  0
SOLID
  5
28FD7
330
28FD0
100
AcDbEntity
  8
sunpo
 62
     4
440
 16777216
100
AcDbTrace
 10
609.407254478337
 20
-1585.021452681254
 30
0.0
 11
610.7405878116702
 21
-1585.021452681254
 31
0.0
 12
610.0739211450036
 22
-1589.021452681254
 32
0.0
 13
610.0739211450036
 23
-1589.021452681254
 33
0.0
  0
MTEXT
  5
28FD8
330
28FD0
100
AcDbEntity
  8
sunpo
 62
     4
440
 16777216
100
AcDbMText
 10
605.0739211450038
 20
-1533.021452744853
 30
0.0
 40
6.0
 41
0.0
 71
     5
 72
     1
  1
\A1;112
  7
MDRAFSTD
 11
0.0000000000000001
 21
1.0
 31
0.0
 73
     1
 44
1.0
  0
POINT
  5
28FD9
330
28FD0
100
AcDbEntity
  8
DEFPOINTS
 62
     0
440
 16777216
100
AcDbPoint
 10
560.9570926765551
 20
-1477.021452808454
 30
0.0
  0
POINT
  5
28FDA
330
28FD0
100
AcDbEntity
  8
DEFPOINTS
 62
     0
440
 16777216
100
AcDbPoint
 10
436.4570926765551
 20
-1589.021452681254
 30
0.0
  0
POINT
  5
28FDB
330
28FD0
100
AcDbEntity
  8
DEFPOINTS
 62
     0
440
 16777216
100
AcDbPoint
 10
610.0739211450036
 20
-1589.021452681254
 30
0.0
  0
ENDBLK
  5
28FD2
330
28FD0
100
AcDbEntity
  8
0
100
AcDbBlockEnd
  0
BLOCK
  5
28FE7
330
28FE6
100
AcDbEntity
  8
0
100
AcDbBlockBegin
  2
*D72
 70
     1
 10
0.0
 20
0.0
 30
0.0
  3
*D72
  1

  0
LINE
  5
29054
330
28FE6
100
AcDbEntity
  8
sunpo
 62
     4
440
 16777216
370
    -2
100
AcDbLine
 10
298.7570926764472
 20
-1568.163968029966
 30
0.0
 11
298.7570926764472
 21
-1438.822726661058
 31
0.0
  0
LINE
  5
29055
330
28FE6
100
AcDbEntity
  8
sunpo
 62
     4
440
 16777216
370
    -2
100
AcDbLine
 10
574.157092676663
 20
-1568.163968029966
 30
0.0
 11
574.157092676663
 21
-1438.822726661058
 31
0.0
  0
LINE
  5
29056
330
28FE6
100
AcDbEntity
  8
sunpo
 62
     4
440
 16777216
370
    -2
100
AcDbLine
 10
302.7570926764472
 20
-1440.822726661058
 30
0.0
 11
570.157092676663
 21
-1440.822726661058
 31
0.0
  0
SOLID
  5
29057
330
28FE6
100
AcDbEntity
  8
sunpo
 62
     4
440
 16777216
100
AcDbTrace
 10
302.7570926764472
 20
-1440.156059994391
 30
0.0
 11
302.7570926764472
 21
-1441.489393327725
 31
0.0
 12
298.7570926764472
 22
-1440.822726661058
 32
0.0
 13
298.7570926764472
 23
-1440.822726661058
 33
0.0
  0
SOLID
  5
29058
330
28FE6
100
AcDbEntity
  8
sunpo
 62
     4
440
 16777216
100
AcDbTrace
 10
570.157092676663
 20
-1440.156059994391
 30
0.0
 11
570.157092676663
 21
-1441.489393327725
 31
0.0
 12
574.157092676663
 22
-1440.822726661058
 32
0.0
 13
574.157092676663
 23
-1440.822726661058
 33
0.0
  0
MTEXT
  5
29059
330
28FE6
100
AcDbEntity
  8
sunpo
 62
     4
440
 16777216
100
AcDbMText
 10
436.4570926765551
 20
-1437.642726661058
 30
0.0
 40
6.0
 41
0.0
 71
     5
 72
     1
  1
\A1;\U+03C6275.4
  7
MDRAFSTD
 73
     1
 44
1.0
  0
POINT
  5
2905A
330
28FE6
100
AcDbEntity
  8
DEFPOINTS
 62
     0
440
 16777216
100
AcDbPoint
 10
298.7570926764472
 20
-1570.163968029966
 30
0.0
  0
POINT
  5
2905B
330
28FE6
100
AcDbEntity
  8
DEFPOINTS
 62
     0
440
 16777216
100
AcDbPoint
 10
574.157092676663
 20
-1570.163968029966
 30
0.0
  0
POINT
  5
2905C
330
28FE6
100
AcDbEntity
  8
DEFPOINTS
 62
     0
440
 16777216
100
AcDbPoint
 10
574.157092676663
 20
-1440.822726661058
 30
0.0
  0
ENDBLK
  5
28FE8
330
28FE6
100
AcDbEntity
  8
0
100
AcDbBlockEnd
  0
BLOCK
  5
29006
330
29005
100
AcDbEntity
  8
0
100
AcDbBlockBegin
  2
*D73
 70
     1
 10
0.0
 20
0.0
 30
0.0
  3
*D73
  1

  0
LINE
  5
2904B
330
29005
100
AcDbEntity
  8
sunpo
 62
     4
440
 16777216
370
    -2
100
AcDbLine
 10
-196.5859389779885
 20
-1580.552826472135
 30
0.0
 11
-196.5859389779885
 21
-1439.810036082595
 31
0.0
  0
LINE
  5
2904C
330
29005
100
AcDbEntity
  8
sunpo
 62
     4
440
 16777216
370
    -2
100
AcDbLine
 10
55.81406102180995
 20
-1580.552826472043
 30
0.0
 11
55.81406102180995
 21
-1439.810036082595
 31
0.0
  0
LINE
  5
2904D
330
29005
100
AcDbEntity
  8
sunpo
 62
     4
440
 16777216
370
    -2
100
AcDbLine
 10
-192.5859389779886
 20
-1441.810036082595
 30
0.0
 11
51.81406102180996
 21
-1441.810036082595
 31
0.0
  0
SOLID
  5
2904E
330
29005
100
AcDbEntity
  8
sunpo
 62
     4
440
 16777216
100
AcDbTrace
 10
-192.5859389779886
 20
-1441.143369415928
 30
0.0
 11
-192.5859389779886
 21
-1442.476702749261
 31
0.0
 12
-196.5859389779885
 22
-1441.810036082595
 32
0.0
 13
-196.5859389779885
 23
-1441.810036082595
 33
0.0
  0
SOLID
  5
2904F
330
29005
100
AcDbEntity
  8
sunpo
 62
     4
440
 16777216
100
AcDbTrace
 10
51.81406102180996
 20
-1441.143369415928
 30
0.0
 11
51.81406102180996
 21
-1442.476702749261
 31
0.0
 12
55.81406102180995
 22
-1441.810036082595
 32
0.0
 13
55.81406102180995
 23
-1441.810036082595
 33
0.0
  0
MTEXT
  5
29050
330
29005
100
AcDbEntity
  8
sunpo
 62
     4
440
 16777216
100
AcDbMText
 10
-70.38593897808931
 20
-1438.630036082594
 30
0.0
 40
6.0
 41
0.0
 71
     5
 72
     1
  1
\A1;\U+03C6252.4
  7
MDRAFSTD
 73
     1
 44
1.0
  0
POINT
  5
29051
330
29005
100
AcDbEntity
  8
DEFPOINTS
 62
     0
440
 16777216
100
AcDbPoint
 10
-196.5859389779885
 20
-1582.552826472135
 30
0.0
  0
POINT
  5
29052
330
29005
100
AcDbEntity
  8
DEFPOINTS
 62
     0
440
 16777216
100
AcDbPoint
 10
55.81406102180995
 20
-1582.552826472043
 30
0.0
  0
POINT
  5
29053
330
29005
100
AcDbEntity
  8
DEFPOINTS
 62
     0
440
 16777216
100
AcDbPoint
 10
55.81406102180995
 20
-1441.810036082595
 30
0.0
  0
ENDBLK
  5
29007
330
29005
100
AcDbEntity
  8
0
100
AcDbBlockEnd
  0
BLOCK
  5
29013
330
29012
100
AcDbEntity
  8
0
100
AcDbBlockBegin
  2
*D74
 70
     1
 10
0.0
 20
0.0
 30
0.0
  3
*D74
  1

  0
LINE
  5
29042
330
29012
100
AcDbEntity
  8
sunpo
 62
     4
440
 16777216
370
    -2
100
AcDbLine
 10
-160.3859389780893
 20
-1484.617641986429
 30
0.0
 11
-160.3859389780893
 21
-1456.808169336105
 31
0.0
  0
LINE
  5
29043
330
29012
100
AcDbEntity
  8
sunpo
 62
     4
440
 16777216
370
    -2
100
AcDbLine
 10
19.61406102191108
 20
-1484.61764198643
 30
0.0
 11
19.61406102191108
 21
-1456.808169336105
 31
0.0
  0
LINE
  5
29044
330
29012
100
AcDbEntity
  8
sunpo
 62
     4
440
 16777216
370
    -2
100
AcDbLine
 10
-156.3859389780893
 20
-1458.808169336105
 30
0.0
 11
15.61406102191108
 21
-1458.808169336105
 31
0.0
  0
SOLID
  5
29045
330
29012
100
AcDbEntity
  8
sunpo
 62
     4
440
 16777216
100
AcDbTrace
 10
-156.3859389780893
 20
-1458.141502669438
 30
0.0
 11
-156.3859389780893
 21
-1459.474836002772
 31
0.0
 12
-160.3859389780893
 22
-1458.808169336105
 32
0.0
 13
-160.3859389780893
 23
-1458.808169336105
 33
0.0
  0
SOLID
  5
29046
330
29012
100
AcDbEntity
  8
sunpo
 62
     4
440
 16777216
100
AcDbTrace
 10
15.61406102191108
 20
-1458.141502669438
 30
0.0
 11
15.61406102191108
 21
-1459.474836002772
 31
0.0
 12
19.61406102191108
 22
-1458.808169336105
 32
0.0
 13
19.61406102191108
 23
-1458.808169336105
 33
0.0
  0
MTEXT
  5
29047
330
29012
100
AcDbEntity
  8
sunpo
 62
     4
440
 16777216
100
AcDbMText
 10
-70.38593897808912
 20
-1455.628169336105
 30
0.0
 40
6.0
 41
0.0
 71
     5
 72
     1
  1
\A1;\U+03C6180
  7
MDRAFSTD
 73
     1
 44
1.0
  0
POINT
  5
29048
330
29012
100
AcDbEntity
  8
DEFPOINTS
 62
     0
440
 16777216
100
AcDbPoint
 10
-160.3859389780893
 20
-1486.617641986429
 30
0.0
  0
POINT
  5
29049
330
29012
100
AcDbEntity
  8
DEFPOINTS
 62
     0
440
 16777216
100
AcDbPoint
 10
19.61406102191108
 20
-1486.61764198643
 30
0.0
  0
POINT
  5
2904A
330
29012
100
AcDbEntity
  8
DEFPOINTS
 62
     0
440
 16777216
100
AcDbPoint
 10
19.61406102191108
 20
-1458.808169336105
 30
0.0
  0
ENDBLK
  5
29014
330
29012
100
AcDbEntity
  8
0
100
AcDbBlockEnd
  0
BLOCK
  5
29071
330
29070
100
AcDbEntity
  8
0
100
AcDbBlockBegin
  2
*D75
 70
     1
 10
0.0
 20
0.0
 30
0.0
  3
*D75
  1

  0
LINE
  5
29073
330
29070
100
AcDbEntity
  8
sunpo
 62
     4
440
 16777216
370
    -2
100
AcDbLine
 10
312.3659382057553
 20
-1848.692637330251
 30
0.0
 11
278.6391907102161
 21
-1848.692637330251
 31
0.0
  0
LINE
  5
29074
330
29070
100
AcDbEntity
  8
sunpo
 62
     4
440
 16777216
370
    -2
100
AcDbLine
 10
296.7570926765551
 20
-1838.69263733025
 30
0.0
 11
278.6391907102161
 21
-1838.69263733025
 31
0.0
  0
LINE
  5
29075
330
29070
100
AcDbEntity
  8
sunpo
 62
     4
440
 16777216
370
    -2
100
AcDbLine
 10
280.6391907102161
 20
-1852.692637330251
 30
0.0
 11
280.6391907102161
 21
-1856.692637330251
 31
0.0
  0
LINE
  5
29076
330
29070
100
AcDbEntity
  8
sunpo
 62
     4
440
 16777216
370
    -2
100
AcDbLine
 10
280.6391907102161
 20
-1834.69263733025
 30
0.0
 11
280.6391907102161
 21
-1830.69263733025
 31
0.0
  0
MTEXT
  5
29077
330
29070
100
AcDbEntity
  8
sunpo
 62
     4
440
 16777216
100
AcDbMText
 10
272.6391907102164
 20
-1843.69263733025
 30
0.0
 40
6.0
 41
0.0
 71
     5
 72
     1
  1
\A1;10
  7
MDRAFSTD
 11
0.0000000000000001
 21
1.0
 31
0.0
 73
     1
 44
1.0
  0
SOLID
  5
29078
330
29070
100
AcDbEntity
  8
sunpo
 62
     4
440
 16777216
100
AcDbTrace
 10
279.9725240435494
 20
-1852.692637330251
 30
0.0
 11
281.3058573768828
 21
-1852.692637330251
 31
0.0
 12
280.6391907102161
 22
-1848.692637330251
 32
0.0
 13
280.6391907102161
 23
-1848.692637330251
 33
0.0
  0
SOLID
  5
29079
330
29070
100
AcDbEntity
  8
sunpo
 62
     4
440
 16777216
100
AcDbTrace
 10
279.9725240435494
 20
-1834.69263733025
 30
0.0
 11
281.3058573768828
 21
-1834.69263733025
 31
0.0
 12
280.6391907102161
 22
-1838.69263733025
 32
0.0
 13
280.6391907102161
 23
-1838.69263733025
 33
0.0
  0
POINT
  5
2907A
330
29070
100
AcDbEntity
  8
DEFPOINTS
 62
     0
440
 16777216
100
AcDbPoint
 10
314.3659382057553
 20
-1848.692637330251
 30
0.0
  0
POINT
  5
2907B
330
29070
100
AcDbEntity
  8
DEFPOINTS
 62
     0
440
 16777216
100
AcDbPoint
 10
298.7570926765551
 20
-1838.69263733025
 30
0.0
  0
POINT
  5
2907C
330
29070
100
AcDbEntity
  8
DEFPOINTS
 62
     0
440
 16777216
100
AcDbPoint
 10
280.6391907102161
 20
-1838.69263733025
 30
0.0
  0
ENDBLK
  5
29072
330
29070
100
AcDbEntity
  8
0
100
AcDbBlockEnd
  0
ENDSEC
  0
SECTION
  2
ENTITIES
  0
CIRCLE
  5
242D
330
20
100
AcDbEntity
  8
gaikei
100
AcDbCircle
 10
-1051.080817050478
 20
-1808.537217793767
 30
0.0
 40
103.2
  0
LINE
  5
242F
330
20
100
AcDbEntity
  8
kijun
100
AcDbLine
 10
-917.617114450878
 20
-1808.537217793767
 30
0.0
 11
-1180.593060455378
 21
-1808.537217793767
 31
0.0
  0
ARC
  5
2430
330
20
100
AcDbEntity
  8
gaikei
100
AcDbCircle
 10
-1051.080817050478
 20
-1808.537217793767
 30
0.0
 40
82.0
100
AcDbArc
 50
352.5863261985007
 51
187.004726409103
  0
ARC
  5
2431
330
20
100
AcDbEntity
  8
gaikei
100
AcDbCircle
 10
-1051.080817050478
 20
-1808.537217793767
 30
0.0
 40
83.0
100
AcDbArc
 50
353.0800831969992
 51
186.9199168030007
  0
ARC
  5
2432
330
20
100
AcDbEntity
  8
hasen
100
AcDbCircle
 10
-1051.080817050478
 20
-1808.537217793767
 30
0.0
 40
83.0
100
AcDbArc
 50
186.9199168030007
 51
353.0800831969992
  0
ARC
  5
2433
330
20
100
AcDbEntity
  8
hasen
100
AcDbCircle
 10
-1051.080817050478
 20
-1808.537217793767
 30
0.0
 40
82.0
100
AcDbArc
 50
187.004726409103
 51
352.9952735908969
  0
LINE
  5
2434
330
20
100
AcDbEntity
  8
kijun
100
AcDbLine
 10
-1051.080817050478
 20
-1702.537217793767
 30
0.0
 11
-1051.080817050478
 21
-1938.404339651867
 31
0.0
  0
ARC
  5
2435
330
20
100
AcDbEntity
  8
gaikei
100
AcDbCircle
 10
-1051.080817050478
 20
-1808.537217793767
 30
0.0
 40
86.0
100
AcDbArc
 50
353.3225946727976
 51
186.6774053272022
  0
DIMENSION
  5
2436
330
20
100
AcDbEntity
  8
sunpo
100
AcDbDimension
  2
*D0
 10
-1171.080817050478
 20
-1808.537217793767
 30
0.0
 11
-1179.080817050477
 21
-1813.537217793767
 31
0.0
 70
    32
  1
１０
 71
     5
 42
10.0
  3
STANDARD
100
AcDbAlignedDimension
 13
-1136.497443066678
 23
-1818.537217793767
 33
0.0
 14
-1157.080817050478
 24
-1808.537217793767
 34
0.0
 50
90.0
100
AcDbRotatedDimension
  0
LINE
  5
2437
330
20
100
AcDbEntity
  8
hasen
100
AcDbLine
 10
-1093.213617540578
 20
-1611.777192375466
 30
0.0
 11
-968.080817050478
 21
-1611.777192375466
 31
0.0
  0
LINE
  5
2438
330
20
100
AcDbEntity
  8
gaikei
100
AcDbLine
 10
-1134.080817050478
 20
-1611.777192375466
 30
0.0
 11
-1093.213617540578
 21
-1611.777192375466
 31
0.0
  0
LINE
  5
243E
330
20
100
AcDbEntity
  8
gaikei
100
AcDbLine
 10
-973.8253318082778
 20
-1818.537217793767
 30
0.0
 11
-965.6641910341779
 21
-1818.537217793767
 31
0.0
  0
LINE
  5
243F
330
20
100
AcDbEntity
  8
gaikei
100
AcDbLine
 10
-1128.336302292578
 20
-1818.537217793767
 30
0.0
 11
-1136.497443066678
 21
-1818.537217793767
 31
0.0
  0
ARC
  5
2440
330
20
100
AcDbEntity
  8
gaikei
100
AcDbCircle
 10
-1051.080817050478
 20
-1808.537217793767
 30
0.0
 40
77.9
100
AcDbArc
 50
187.3753939355976
 51
352.6246060644021
  0
LINE
  5
2442
330
20
100
AcDbEntity
  8
gaikei
100
AcDbLine
 10
-1090.807835678978
 20
-1512.862978813166
 30
0.0
 11
-1134.080817050478
 21
-1512.862978813166
 31
0.0
  0
LINE
  5
2443
330
20
100
AcDbEntity
  8
gaikei
100
AcDbLine
 10
-1095.442287807778
 20
-1527.777192375467
 30
0.0
 11
-963.5808170504775
 21
-1527.777192375467
 31
0.0
  0
LINE
  5
2444
330
20
100
AcDbEntity
  8
gaikei
100
AcDbLine
 10
-1137.580817050478
 20
-1526.777192375466
 30
0.0
 11
-1137.580817050478
 21
-1513.777192375466
 31
0.0
  0
ARC
  5
2445
330
20
100
AcDbEntity
  8
gaikei
100
AcDbCircle
 10
-1134.580817050478
 20
-1526.277192375467
 30
0.0
 40
1.5
100
AcDbArc
 50
296.3877999613019
 51
63.61220003869808
  0
LINE
  5
2446
330
20
100
AcDbEntity
  8
gaikei
100
AcDbLine
 10
-1095.422290663378
 20
-1527.691405937867
 30
0.0
 11
-1134.080817050478
 21
-1527.691405937867
 31
0.0
  0
LINE
  5
2447
330
20
100
AcDbEntity
  8
gaikei
100
AcDbLine
 10
-1138.580817050478
 20
-1532.777192375467
 30
0.0
 11
-1137.080817050478
 21
-1534.277192375467
 31
0.0
  0
LINE
  5
2448
330
20
100
AcDbEntity
  8
gaikei
100
AcDbLine
 10
-1138.580817050478
 20
-1527.777192375467
 30
0.0
 11
-1137.580817050478
 21
-1526.777192375466
 31
0.0
  0
LINE
  5
2449
330
20
100
AcDbEntity
  8
gaikei
100
AcDbLine
 10
-1138.580817050478
 20
-1527.777192375467
 30
0.0
 11
-1139.080817050478
 21
-1527.777192375467
 31
0.0
  0
LINE
  5
244A
330
20
100
AcDbEntity
  8
gaikei
100
AcDbLine
 10
-1139.080817050478
 20
-1532.777192375467
 30
0.0
 11
-1138.580817050478
 21
-1532.777192375467
 31
0.0
  0
LINE
  5
244B
330
20
100
AcDbEntity
  8
gaikei
100
AcDbLine
 10
-1139.080817050478
 20
-1532.777192375467
 30
0.0
 11
-1139.080817050478
 21
-1527.777192375467
 31
0.0
  0
ARC
  5
244C
330
20
100
AcDbEntity
  8
gaikei
100
AcDbCircle
 10
-1133.780817050477
 20
-1527.889643925167
 30
0.0
 40
0.3
100
AcDbArc
 50
116.3877999613019
 51
180.0
  0
LINE
  5
244D
330
20
100
AcDbEntity
  8
gaikei
100
AcDbLine
 10
-1094.709656319978
 20
-1524.862978813166
 30
0.0
 11
-1134.080817050478
 21
-1524.862978813166
 31
0.0
  0
LINE
  5
244E
330
20
100
AcDbEntity
  8
gaikei
100
AcDbLine
 10
-1094.386125898478
 20
-1523.691405937867
 30
0.0
 11
-1134.080817050478
 21
-1523.691405937867
 31
0.0
  0
LINE
  5
244F
330
20
100
AcDbEntity
  8
gaikei
100
AcDbLine
 10
-1093.544551881378
 20
-1520.862978813166
 30
0.0
 11
-1134.080817050478
 21
-1520.862978813166
 31
0.0
  0
LINE
  5
2450
330
20
100
AcDbEntity
  8
gaikei
100
AcDbLine
 10
-1093.173390177378
 20
-1519.691405937867
 30
0.0
 11
-1134.080817050478
 21
-1519.691405937867
 31
0.0
  0
LINE
  5
2451
330
20
100
AcDbEntity
  8
gaikei
100
AcDbLine
 10
-1092.230780238178
 20
-1516.862978813166
 30
0.0
 11
-1134.080817050478
 21
-1516.862978813166
 31
0.0
  0
LINE
  5
2452
330
20
100
AcDbEntity
  8
gaikei
100
AcDbLine
 10
-1091.823551283978
 20
-1515.691405937867
 30
0.0
 11
-1134.080817050478
 21
-1515.691405937867
 31
0.0
  0
LINE
  5
2453
330
20
100
AcDbEntity
  8
gaikei
100
AcDbLine
 10
-1139.080817050478
 20
-1512.777192375466
 30
0.0
 11
-1139.080817050478
 21
-1507.777192375467
 31
0.0
  0
LINE
  5
2454
330
20
100
AcDbEntity
  8
gaikei
100
AcDbLine
 10
-1137.580817050478
 20
-1513.777192375466
 30
0.0
 11
-1138.580817050478
 21
-1512.777192375466
 31
0.0
  0
LINE
  5
2455
330
20
100
AcDbEntity
  8
gaikei
100
AcDbLine
 10
-1138.580817050478
 20
-1512.777192375466
 30
0.0
 11
-1139.080817050478
 21
-1512.777192375466
 31
0.0
  0
ARC
  5
2456
330
20
100
AcDbEntity
  8
gaikei
100
AcDbCircle
 10
-1133.780817050477
 20
-1512.664740825867
 30
0.0
 40
0.3
100
AcDbArc
 50
180.0
 51
243.612200038698
  0
ARC
  5
2457
330
20
100
AcDbEntity
  8
gaikei
100
AcDbCircle
 10
-1133.780817050477
 20
-1515.889643925167
 30
0.0
 40
0.3
100
AcDbArc
 50
116.3877999613019
 51
180.0
  0
ARC
  5
2458
330
20
100
AcDbEntity
  8
gaikei
100
AcDbCircle
 10
-1133.780817050477
 20
-1516.664740825867
 30
0.0
 40
0.3
100
AcDbArc
 50
180.0
 51
243.612200038698
  0
ARC
  5
2459
330
20
100
AcDbEntity
  8
gaikei
100
AcDbCircle
 10
-1133.780817050477
 20
-1519.889643925167
 30
0.0
 40
0.3
100
AcDbArc
 50
116.3877999613019
 51
180.0
  0
ARC
  5
245A
330
20
100
AcDbEntity
  8
gaikei
100
AcDbCircle
 10
-1133.780817050477
 20
-1520.664740825867
 30
0.0
 40
0.3
100
AcDbArc
 50
180.0
 51
243.612200038698
  0
ARC
  5
245B
330
20
100
AcDbEntity
  8
gaikei
100
AcDbCircle
 10
-1133.780817050477
 20
-1523.889643925167
 30
0.0
 40
0.3
100
AcDbArc
 50
116.3877999613019
 51
180.0
  0
ARC
  5
245C
330
20
100
AcDbEntity
  8
gaikei
100
AcDbCircle
 10
-1133.780817050477
 20
-1524.664740825867
 30
0.0
 40
0.3
100
AcDbArc
 50
180.0
 51
243.612200038698
  0
ARC
  5
245D
330
20
100
AcDbEntity
  8
gaikei
100
AcDbCircle
 10
-1134.580817050478
 20
-1522.277192375466
 30
0.0
 40
1.5
100
AcDbArc
 50
296.3877999613019
 51
63.61220003869808
  0
LINE
  5
245E
330
20
100
AcDbEntity
  8
gaikei
100
AcDbLine
 10
-1134.080817050478
 20
-1524.664740825867
 30
0.0
 11
-1134.080817050478
 21
-1523.889643925167
 31
0.0
  0
ARC
  5
245F
330
20
100
AcDbEntity
  8
gaikei
100
AcDbCircle
 10
-1134.580817050478
 20
-1514.277192375466
 30
0.0
 40
1.5
100
AcDbArc
 50
296.3877999613019
 51
63.61220003869808
  0
LINE
  5
2460
330
20
100
AcDbEntity
  8
gaikei
100
AcDbLine
 10
-1134.080817050478
 20
-1516.664740825867
 30
0.0
 11
-1134.080817050478
 21
-1515.889643925167
 31
0.0
  0
LINE
  5
2461
330
20
100
AcDbEntity
  8
gaikei
100
AcDbLine
 10
-1134.080817050478
 20
-1520.664740825867
 30
0.0
 11
-1134.080817050478
 21
-1519.889643925167
 31
0.0
  0
ARC
  5
2462
330
20
100
AcDbEntity
  8
gaikei
100
AcDbCircle
 10
-1134.580817050478
 20
-1518.277192375467
 30
0.0
 40
1.5
100
AcDbArc
 50
296.3877999613019
 51
63.61220003869808
  0
LINE
  5
2463
330
20
100
AcDbEntity
  8
gaikei
100
AcDbLine
 10
-964.5808170504777
 20
-1526.777192375466
 30
0.0
 11
-964.5808170504777
 21
-1513.777192375466
 31
0.0
  0
LINE
  5
2464
330
20
100
AcDbEntity
  8
gaikei
100
AcDbLine
 10
-965.0808170504779
 20
-1534.277192375467
 30
0.0
 11
-963.5808170504775
 21
-1532.777192375467
 31
0.0
  0
LINE
  5
2465
330
20
100
AcDbEntity
  8
gaikei
100
AcDbLine
 10
-963.0808170504778
 20
-1532.777192375467
 30
0.0
 11
-963.5808170504775
 21
-1532.777192375467
 31
0.0
  0
LINE
  5
2466
330
20
100
AcDbEntity
  8
gaikei
100
AcDbLine
 10
-963.0808170504778
 20
-1532.777192375467
 30
0.0
 11
-963.0808170504778
 21
-1527.777192375467
 31
0.0
  0
LINE
  5
2467
330
20
100
AcDbEntity
  8
gaikei
100
AcDbLine
 10
-963.5808170504775
 20
-1527.777192375467
 30
0.0
 11
-963.0808170504778
 21
-1527.777192375467
 31
0.0
  0
LINE
  5
2468
330
20
100
AcDbEntity
  8
gaikei
100
AcDbLine
 10
-963.5808170504775
 20
-1527.777192375467
 30
0.0
 11
-964.5808170504777
 21
-1526.777192375466
 31
0.0
  0
LINE
  5
2469
330
20
100
AcDbEntity
  8
gaikei
100
AcDbLine
 10
-1091.140621950978
 20
-1513.777192375466
 30
0.0
 11
-964.5808170504777
 21
-1513.777192375466
 31
0.0
  0
LINE
  5
246A
330
20
100
AcDbEntity
  8
gaikei
100
AcDbLine
 10
-1090.776414199278
 20
-1512.777192375466
 30
0.0
 11
-963.5808170504775
 21
-1512.777192375466
 31
0.0
  0
LINE
  5
246B
330
20
100
AcDbEntity
  8
gaikei
100
AcDbLine
 10
-963.0808170504778
 20
-1512.777192375466
 30
0.0
 11
-963.0808170504778
 21
-1507.777192375467
 31
0.0
  0
LINE
  5
246C
330
20
100
AcDbEntity
  8
gaikei
100
AcDbLine
 10
-963.5808170504775
 20
-1512.777192375466
 30
0.0
 11
-963.0808170504778
 21
-1512.777192375466
 31
0.0
  0
LINE
  5
246D
330
20
100
AcDbEntity
  8
gaikei
100
AcDbLine
 10
-964.5808170504777
 20
-1513.777192375466
 30
0.0
 11
-963.5808170504775
 21
-1512.777192375466
 31
0.0
  0
LINE
  5
246E
330
20
100
AcDbEntity
  8
gaikei
100
AcDbLine
 10
-1139.080817050478
 20
-1507.777192375467
 30
0.0
 11
-1051.080817050478
 21
-1507.777192375467
 31
0.0
  0
LINE
  5
246F
330
20
100
AcDbEntity
  8
gaikei
100
AcDbLine
 10
-1139.080817050478
 20
-1507.777192375467
 30
0.0
 11
-1134.080817050478
 21
-1507.777192375467
 31
0.0
  0
LINE
  5
2470
330
20
100
AcDbEntity
  8
gaikei
100
AcDbLine
 10
-1134.080817050478
 20
-1512.664740825867
 30
0.0
 11
-1134.080817050478
 21
-1507.777192375467
 31
0.0
  0
LINE
  5
2471
330
20
100
AcDbEntity
  8
gaikei
100
AcDbLine
 10
-963.0808170504778
 20
-1507.777192375467
 30
0.0
 11
-1051.080817050478
 21
-1507.777192375467
 31
0.0
  0
ARC
  5
2472
330
20
100
AcDbEntity
  8
hasen
100
AcDbCircle
 10
-967.5808170504776
 20
-1526.277192375467
 30
0.0
 40
1.5
100
AcDbArc
 50
116.3877999613019
 51
243.612200038698
  0
ARC
  5
2473
330
20
100
AcDbEntity
  8
hasen
100
AcDbCircle
 10
-968.380817050478
 20
-1527.889643925167
 30
0.0
 40
0.3
100
AcDbArc
 50
0.0
 51
63.61220003869808
  0
ARC
  5
2474
330
20
100
AcDbEntity
  8
hasen
100
AcDbCircle
 10
-968.380817050478
 20
-1512.664740825867
 30
0.0
 40
0.3
100
AcDbArc
 50
296.3877999613019
 51
0.0
  0
ARC
  5
2475
330
20
100
AcDbEntity
  8
hasen
100
AcDbCircle
 10
-968.380817050478
 20
-1515.889643925167
 30
0.0
 40
0.3
100
AcDbArc
 50
0.0
 51
63.61220003869808
  0
ARC
  5
2476
330
20
100
AcDbEntity
  8
hasen
100
AcDbCircle
 10
-968.380817050478
 20
-1516.664740825867
 30
0.0
 40
0.3
100
AcDbArc
 50
296.3877999613019
 51
0.0
  0
ARC
  5
2477
330
20
100
AcDbEntity
  8
hasen
100
AcDbCircle
 10
-968.380817050478
 20
-1519.889643925167
 30
0.0
 40
0.3
100
AcDbArc
 50
0.0
 51
63.61220003869808
  0
ARC
  5
2478
330
20
100
AcDbEntity
  8
hasen
100
AcDbCircle
 10
-968.380817050478
 20
-1520.664740825867
 30
0.0
 40
0.3
100
AcDbArc
 50
296.3877999613019
 51
0.0
  0
ARC
  5
2479
330
20
100
AcDbEntity
  8
hasen
100
AcDbCircle
 10
-968.380817050478
 20
-1523.889643925167
 30
0.0
 40
0.3
100
AcDbArc
 50
0.0
 51
63.61220003869808
  0
ARC
  5
247A
330
20
100
AcDbEntity
  8
hasen
100
AcDbCircle
 10
-968.380817050478
 20
-1524.664740825867
 30
0.0
 40
0.3
100
AcDbArc
 50
296.3877999613019
 51
0.0
  0
ARC
  5
247B
330
20
100
AcDbEntity
  8
hasen
100
AcDbCircle
 10
-967.5808170504776
 20
-1514.277192375466
 30
0.0
 40
1.5
100
AcDbArc
 50
116.3877999613019
 51
243.612200038698
  0
LINE
  5
247C
330
20
100
AcDbEntity
  8
hasen
100
AcDbLine
 10
-968.080817050478
 20
-1516.664740825867
 30
0.0
 11
-968.080817050478
 21
-1515.889643925167
 31
0.0
  0
ARC
  5
247D
330
20
100
AcDbEntity
  8
hasen
100
AcDbCircle
 10
-967.5808170504776
 20
-1518.277192375467
 30
0.0
 40
1.5
100
AcDbArc
 50
116.3877999613019
 51
243.612200038698
  0
LINE
  5
247E
330
20
100
AcDbEntity
  8
hasen
100
AcDbLine
 10
-968.080817050478
 20
-1520.664740825867
 30
0.0
 11
-968.080817050478
 21
-1519.889643925167
 31
0.0
  0
ARC
  5
247F
330
20
100
AcDbEntity
  8
hasen
100
AcDbCircle
 10
-967.5808170504776
 20
-1522.277192375466
 30
0.0
 40
1.5
100
AcDbArc
 50
116.3877999613019
 51
243.612200038698
  0
LINE
  5
2480
330
20
100
AcDbEntity
  8
hasen
100
AcDbLine
 10
-968.080817050478
 20
-1524.664740825867
 30
0.0
 11
-968.080817050478
 21
-1523.889643925167
 31
0.0
  0
LINE
  5
2481
330
20
100
AcDbEntity
  8
hasen
100
AcDbLine
 10
-968.080817050478
 20
-1512.664740825867
 30
0.0
 11
-968.080817050478
 21
-1507.777192375467
 31
0.0
  0
LINE
  5
2482
330
20
100
AcDbEntity
  8
hasen
100
AcDbLine
 10
-968.080817050478
 20
-1527.889643925167
 30
0.0
 11
-968.080817050478
 21
-1569.444139154366
 31
0.0
  0
DIMENSION
  5
2483
330
20
100
AcDbEntity
  8
sunpo
100
AcDbDimension
  2
*D1
 10
-1154.28081705038
 20
-1449.309331812634
 30
0.0
 11
-1051.080817050478
 21
-1446.129331812634
 31
0.0
 70
    32
 71
     5
 42
206.3999999998046
  3
STANDARD
100
AcDbAlignedDimension
 13
-947.8808170505756
 23
-1578.352628924451
 33
0.0
 14
-1154.28081705038
 24
-1578.352628924451
 34
0.0
100
AcDbRotatedDimension
1001
ACAD
1000
DSTYLE
1002
{
1070
     3
1000
\U+03C6<>
1070
   147
1040
0.09
1002
}
  0
LINE
  5
2488
330
20
100
AcDbEntity
  8
gaikei
100
AcDbLine
 10
-1095.188245036278
 20
-1526.777192375466
 30
0.0
 11
-964.5808170504777
 21
-1526.777192375466
 31
0.0
  0
LINE
  5
2489
330
20
100
AcDbEntity
  8
gaikei
100
AcDbLine
 10
-963.5808170504775
 20
-1532.777192375467
 30
0.0
 11
-1096.485688666978
 21
-1532.777192375467
 31
0.0
  0
LINE
  5
248A
330
20
100
AcDbEntity
  8
gaikei
100
AcDbLine
 10
-965.0808170504779
 20
-1534.277192375467
 30
0.0
 11
-1096.630943266978
 21
-1534.277192375467
 31
0.0
  0
LWPOLYLINE
  5
248B
330
20
100
AcDbEntity
  8
gaikei
100
AcDbPolyline
 90
      141
 70
     0
 43
0.0
 10
-1088.883757792278
 20
-1506.364095768266
 10
-1088.965491405678
 20
-1506.634951208666
 10
-1089.184526151978
 20
-1507.360155953167
 10
-1089.501612890478
 20
-1508.408667635966
 10
-1089.877502480378
 20
-1509.649443891766
 10
-1090.272945781078
 20
-1510.951442354867
 10
-1090.648693651578
 20
-1512.183620659867
 10
-1090.965496951378
 20
-1513.214936441267
 10
-1091.140621950978
 20
-1513.777192375466
 10
-1091.593510450578
 20
-1515.113778523467
 10
-1091.814991831678
 20
-1515.667317613567
 10
-1091.823551283978
 20
-1515.691405937867
 10
-1092.122331543678
 20
-1516.542871148867
 10
-1092.230780238178
 20
-1516.862978813166
 10
-1092.528654433478
 20
-1517.750896220366
 10
-1092.885983032378
 20
-1518.822886867866
 10
-1093.173390177378
 20
-1519.691405937867
 10
-1093.454459339578
 20
-1520.565918631666
 10
-1093.544551881378
 20
-1520.862978813166
 10
-1093.814563775178
 20
-1521.761640636966
 10
-1094.136709074278
 20
-1522.844243253066
 10
-1094.386125898478
 20
-1523.691405937867
 10
-1094.649706101478
 20
-1524.632188130267
 10
-1094.709656319978
 20
-1524.862978813166
 10
-1094.956873940178
 20
-1525.845248089266
 10
-1095.188245036278
 20
-1526.777192375466
 10
-1095.423155735778
 20
-1527.688985759766
 10
-1095.442287807778
 20
-1527.777192375467
 10
-1095.610434309478
 20
-1528.556800108466
 10
-1095.835529288278
 20
-1529.608360732966
 10
-1096.079581119878
 20
-1530.763023020166
 10
-1096.304598179777
 20
-1531.851935741067
 10
-1096.472588843778
 20
-1532.706247666866
 10
-1096.485688666978
 20
-1532.777192375467
 10
-1097.533015025278
 20
-1532.452486729166
 10
-1096.630943266978
 20
-1534.277192375467
 10
-1096.353945672878
 20
-1534.785801902667
 10
-1096.021970709978
 20
-1535.380191387466
 10
-1095.639809507778
 20
-1536.052950234467
 10
-1095.212253195978
 20
-1536.796667847767
 10
-1094.744092904078
 20
-1537.603933631866
 10
-1094.240119761878
 20
-1538.467336991067
 10
-1093.705124898778
 20
-1539.379467329666
 10
-1093.143899444578
 20
-1540.332914051966
 10
-1092.561234528778
 20
-1541.320266562467
 10
-1091.961921281078
 20
-1542.334114265267
 10
-1091.350750831078
 20
-1543.367046564867
 10
-1090.732514308278
 20
-1544.411652865466
 10
-1090.112002842478
 20
-1545.460522571567
 10
-1089.494007563278
 20
-1546.506245087367
 10
-1088.883319600178
 20
-1547.541409817366
 10
-1088.284730082778
 20
-1548.558606165667
 10
-1087.703030140878
 20
-1549.550423536766
 10
-1087.143010903978
 20
-1550.509451334967
 10
-1086.609463501678
 20
-1551.428278964667
 10
-1086.107179063678
 20
-1552.299495830067
 10
-1085.640948719478
 20
-1553.115691335567
 10
-1085.215563598778
 20
-1553.869454885467
 10
-1084.835814831278
 20
-1554.553375884166
 10
-1084.506493546378
 20
-1555.160043735966
 10
-1084.393039466778
 20
-1555.373576969167
 10
-1083.239727254378
 20
-1557.054298622167
 10
-1082.492907141578
 20
-1557.530522394866
 10
-1082.171622564178
 20
-1557.632322077367
 10
-1082.294916957678
 20
-1558.189771460067
 10
-1082.881833757777
 20
-1560.032944333167
 10
-1082.940540221878
 20
-1560.230777955867
 10
-1083.126511667678
 20
-1560.809952203967
 10
-1083.355798077778
 20
-1561.438915567167
 10
-1083.624978680278
 20
-1562.114886594367
 10
-1083.930632702978
 20
-1562.835083834567
 10
-1084.269339373878
 20
-1563.596725836767
 10
-1084.637677920978
 20
-1564.397031149867
 10
-1085.032227572278
 20
-1565.233218323067
 10
-1085.449567555778
 20
-1566.102505905067
 10
-1085.886277099278
 20
-1567.002112445067
 10
-1086.338935430878
 20
-1567.929256492067
 10
-1086.804121778478
 20
-1568.881156594867
 10
-1087.278415370178
 20
-1569.855031302467
 10
-1087.758395433778
 20
-1570.848099164067
 10
-1088.240641197278
 20
-1571.857578728367
 10
-1088.721731888778
 20
-1572.880688544566
 10
-1089.198246736078
 20
-1573.914647161567
 10
-1089.666764967178
 20
-1574.956673128366
 10
-1090.123865810178
 20
-1576.003984993967
 10
-1090.566128492878
 20
-1577.053801307267
 10
-1090.990132243378
 20
-1578.103340617366
 10
-1091.392456289578
 20
-1579.149821473067
 10
-1091.769679859378
 20
-1580.190462423567
 10
-1092.118382180878
 20
-1581.222482017766
 10
-1092.435142481978
 20
-1582.243098804567
 10
-1092.716539990578
 20
-1583.249531333066
 10
-1092.959153934778
 20
-1584.238998152166
 10
-1093.100584282478
 20
-1584.902489147267
 10
-1093.276625494878
 20
-1585.879585214066
 10
-1093.423751220078
 20
-1586.890302173066
 10
-1093.543846909778
 20
-1587.930798661967
 10
-1093.638798015778
 20
-1588.997233318567
 10
-1093.710489989678
 20
-1590.085764780567
 10
-1093.760808283378
 20
-1591.192551685866
 10
-1093.791638348478
 20
-1592.313752672166
 10
-1093.804865636878
 20
-1593.445526377366
 10
-1093.802375600178
 20
-1594.584031439066
 10
-1093.786053690278
 20
-1595.725426495167
 10
-1093.757785358778
 20
-1596.865870183466
 10
-1093.719456057378
 20
-1598.001521141666
 10
-1093.672951237978
 20
-1599.128538007667
 10
-1093.620156352278
 20
-1600.243079419167
 10
-1093.562956851878
 20
-1601.341304013866
 10
-1093.503238188778
 20
-1602.419370429767
 10
-1093.442885814478
 20
-1603.473437304467
 10
-1093.383785180778
 20
-1604.499663275767
 10
-1093.327821739477
 20
-1605.494206981567
 10
-1093.276880942378
 20
-1606.453227059567
 10
-1093.232848241078
 20
-1607.372882147567
 10
-1093.197609087378
 20
-1608.249330883267
 10
-1093.173048932978
 20
-1609.078731904566
 10
-1093.161053229778
 20
-1609.857243849267
 10
-1093.163507429278
 20
-1610.581025354967
 10
-1093.182296983478
 20
-1611.246235059667
 10
-1093.213617540578
 20
-1611.777192375466
 10
-1093.517199659978
 20
-1614.103878253567
 10
-1093.922605852577
 20
-1615.042831472166
 10
-1094.416265401278
 20
-1615.265987711267
 10
-1094.984607589278
 20
-1615.445282651366
 10
-1095.478990843578
 20
-1616.000300072467
 10
-1095.968437270778
 20
-1616.747309732867
 10
-1096.562036429878
 20
-1617.556454605766
 10
-1097.209109263978
 20
-1618.410403982366
 10
-1097.858976716178
 20
-1619.291827153767
 10
-1098.460959729678
 20
-1620.183393411167
 10
-1098.964379247378
 20
-1621.067772045667
 10
-1099.318556212478
 20
-1621.927632348367
 10
-1099.398823464478
 20
-1622.223702549067
 10
-1099.474688665778
 20
-1623.358392193267
 10
-1099.309812217178
 20
-1624.644401585766
 10
-1099.004648862878
 20
-1625.924075028867
 10
-1098.659653347278
 20
-1627.039756824467
 10
-1098.375280414578
 20
-1627.833791274866
 10
-1098.251984808878
 20
-1628.148522682166
 10
-1098.251821188078
 20
-1628.148919912667
  0
LINE
  5
24E9
330
20
100
AcDbEntity
  8
kijun
100
AcDbLine
 10
-1051.080817050478
 20
-1502.314609147866
 30
0.0
 11
-1051.080817050478
 21
-1648.247383248766
 31
0.0
  0
LINE
  5
24ED
330
20
100
AcDbEntity
  8
gaikei
100
AcDbLine
 10
-947.880817050478
 20
-1584.025354439767
 30
0.0
 11
-947.880817050478
 21
-1578.352628924567
 31
0.0
  0
LINE
  5
24EE
330
20
100
AcDbEntity
  8
hasen
100
AcDbLine
 10
-956.0808170504779
 20
-1579.790079401466
 30
0.0
 11
-953.0808170504778
 21
-1575.693876571266
 31
0.0
  0
LINE
  5
24EF
330
20
100
AcDbEntity
  8
gaikei
100
AcDbLine
 10
-965.0808170504779
 20
-1534.277192375467
 30
0.0
 11
-965.0808170504779
 21
-1570.196741447566
 31
0.0
  0
ARC
  5
24F0
330
20
100
AcDbEntity
  8
gaikei
100
AcDbCircle
 10
-1051.080817050478
 20
-1773.777192375467
 30
0.0
 40
221.0
100
AcDbArc
 50
62.16231673049949
 51
98.74556336709792
  0
ARC
  5
24F1
330
20
100
AcDbEntity
  8
gaikei
100
AcDbCircle
 10
-1051.080817050478
 20
-1773.777192375467
 30
0.0
 40
216.0
100
AcDbArc
 50
61.45963451510337
 51
98.50460857199735
  0
LINE
  5
24F2
330
20
100
AcDbEntity
  8
gaikei
100
AcDbLine
 10
-1154.280817050278
 20
-1584.025354440067
 30
0.0
 11
-1154.280817056777
 21
-1578.352628912566
 31
0.0
  0
LINE
  5
24F3
330
20
100
AcDbEntity
  8
gaikei
100
AcDbLine
 10
-1146.080817050478
 20
-1579.790079401466
 30
0.0
 11
-1149.080817050478
 21
-1575.693876571266
 31
0.0
  0
ARC
  5
24F4
330
20
100
AcDbEntity
  8
gaikei
100
AcDbCircle
 10
-1051.080817050478
 20
-1773.777192375467
 30
0.0
 40
221.0
100
AcDbArc
 50
112.9010151573964
 51
117.8376832695005
  0
ARC
  5
24F7
330
20
100
AcDbEntity
  8
gaikei
100
AcDbCircle
 10
-1051.080817050478
 20
-1779.777192375467
 30
0.0
 40
160.0
100
AcDbArc
 50
49.83432453069696
 51
130.165675469303
  0
ARC
  5
24F8
330
20
100
AcDbEntity
  8
gaikei
100
AcDbCircle
 10
-1051.080817050478
 20
-1773.777192375467
 30
0.0
 40
216.0
100
AcDbArc
 50
113.462461212499
 51
116.0920661931016
  0
ARC
  5
24F9
330
20
100
AcDbEntity
  8
gaikei
100
AcDbCircle
 10
-1051.080817050478
 20
-1773.777192375467
 30
0.0
 40
216.0
100
AcDbArc
 50
118.0282863179975
 51
118.5403654848966
  0
LINE
  5
24FA
330
20
100
AcDbEntity
  8
gaikei
100
AcDbLine
 10
-1128.336302292578
 20
-1611.777192375466
 30
0.0
 11
-1128.336302291878
 21
-1639.664416371467
 31
0.0
  0
LINE
  5
24FB
330
20
100
AcDbEntity
  8
gaikei
100
AcDbLine
 10
-1137.080817050478
 20
-1644.854992571267
 30
0.0
 11
-1134.080817050478
 21
-1639.491769041467
 31
0.0
  0
LINE
  5
24FC
330
20
100
AcDbEntity
  8
gaikei
100
AcDbLine
 10
-1134.080817050478
 20
-1527.889643925167
 30
0.0
 11
-1134.080817050478
 21
-1639.491769041467
 31
0.0
  0
LINE
  5
24FD
330
20
100
AcDbEntity
  8
hasen
100
AcDbLine
 10
-965.0808170504779
 20
-1644.854992571267
 30
0.0
 11
-968.080817050478
 21
-1639.491769041467
 31
0.0
  0
LINE
  5
24FE
330
20
100
AcDbEntity
  8
hasen
100
AcDbLine
 10
-968.080817050478
 20
-1639.491769041467
 30
0.0
 11
-968.080817050478
 21
-1569.444139154366
 31
0.0
  0
LINE
  5
24FF
330
20
100
AcDbEntity
  8
hasen
100
AcDbLine
 10
-973.8253318082778
 20
-1611.777192375466
 30
0.0
 11
-973.825331808778
 21
-1639.664416371067
 31
0.0
  0
ARC
  5
2500
330
20
100
AcDbEntity
  8
hasen
100
AcDbCircle
 10
-960.5808170504779
 20
-1635.278057429967
 30
0.0
 40
4.5
100
AcDbArc
 50
180.0
 51
0.0
  0
LINE
  5
2501
330
20
100
AcDbEntity
  8
hasen
100
AcDbLine
 10
-956.0808170504779
 20
-1579.790079401466
 30
0.0
 11
-956.0808170504779
 21
-1635.278057429967
 31
0.0
  0
LINE
  5
2502
330
20
100
AcDbEntity
  8
hasen
100
AcDbLine
 10
-965.0808170504779
 20
-1570.196741447566
 30
0.0
 11
-965.0808170504779
 21
-1635.278057429967
 31
0.0
  0
LINE
  5
2503
330
20
100
AcDbEntity
  8
gaikei
100
AcDbLine
 10
-1146.080817050478
 20
-1579.790079401466
 30
0.0
 11
-1146.080817050478
 21
-1635.278057429967
 31
0.0
  0
LINE
  5
2504
330
20
100
AcDbEntity
  8
gaikei
100
AcDbLine
 10
-1137.080817050478
 20
-1534.277192375467
 30
0.0
 11
-1137.080817050478
 21
-1635.278057429967
 31
0.0
  0
ARC
  5
2505
330
20
100
AcDbEntity
  8
hasen
100
AcDbCircle
 10
-1051.080817050478
 20
-1779.777192375467
 30
0.0
 40
166.0
100
AcDbArc
 50
57.94103156669723
 51
122.0589684333027
  0
ARC
  5
2506
330
20
100
AcDbEntity
  8
gaikei
100
AcDbCircle
 10
-1141.580817050478
 20
-1635.278057429967
 30
0.0
 40
4.5
100
AcDbArc
 50
180.0
 51
0.0
  0
LINE
  5
250D
330
20
100
AcDbEntity
  8
gaikei
100
AcDbLine
 10
-947.880817050478
 20
-1640.9292179574
 30
0.0
 11
-947.880817050478
 21
-1657.507981206067
 31
0.0
  0
LINE
  5
2510
330
20
100
AcDbEntity
  8
gaikei
100
AcDbLine
 10
-949.5808170504778
 20
-1583.110598552667
 30
0.0
 11
-949.5808170504778
 21
-1639.681689235667
 31
0.0
  0
LINE
  5
2517
330
20
100
AcDbEntity
  8
gaikei
100
AcDbLine
 10
-1154.280817050477
 20
-1640.9292179574
 30
0.0
 11
-1154.280817050477
 21
-1657.507981206067
 31
0.0
  0
LINE
  5
251A
330
20
100
AcDbEntity
  8
gaikei
100
AcDbLine
 10
-1152.580817050478
 20
-1583.110598552667
 30
0.0
 11
-1152.580817050478
 21
-1639.681689235667
 31
0.0
  0
ARC
  5
251B
330
20
100
AcDbEntity
  8
gaikei
100
AcDbCircle
 10
-1051.080817050478
 20
-1779.777192375467
 30
0.0
 40
173.0
100
AcDbArc
 50
125.9235463010996
 51
126.6219072747006
  0
ARC
  5
251C
330
20
100
AcDbEntity
  8
gaikei
100
AcDbCircle
 10
-1051.080817050478
 20
-1779.777192375467
 30
0.0
 40
173.0
100
AcDbArc
 50
53.37809272529934
 51
104.1144187778032
  0
DIMENSION
  5
2565
330
20
100
AcDbEntity
  8
sunpo
100
AcDbDimension
  2
*D5
 10
-919.8808170504781
 20
-1619.777192375467
 30
0.0
 11
-924.8808170504778
 21
-1563.777192375467
 31
0.0
 70
    32
  1
１１２
 71
     5
 42
112.0
  3
STANDARD
100
AcDbAlignedDimension
 13
-963.0808170504778
 23
-1507.777192375467
 33
0.0
 14
-1051.080817050478
 24
-1619.777192375467
 34
0.0
 50
90.0
100
AcDbRotatedDimension
  0
LINE
  5
6007
330
20
100
AcDbEntity
  8
kijun
100
AcDbLine
 10
-1302.2930075481
 20
-1808.537217793767
 30
0.0
 11
-1556.612123718517
 21
-1808.537217793767
 31
0.0
  0
LINE
  5
6008
330
20
100
AcDbEntity
  8
kijun
100
AcDbLine
 10
-1435.756710147701
 20
-1702.537217793767
 30
0.0
 11
-1435.756710147701
 21
-1938.404339651867
 31
0.0
  0
LINE
  5
6009
330
20
100
AcDbEntity
  8
hasen
100
AcDbLine
 10
-1477.8895106378
 20
-1613.76332664678
 30
0.0
 11
-1376.0567101477
 21
-1613.76332664678
 31
0.0
  0
LINE
  5
600A
330
20
100
AcDbEntity
  8
gaikei
100
AcDbLine
 10
-1493.2567101477
 20
-1613.76332664678
 30
0.0
 11
-1477.8895106378
 21
-1613.76332664678
 31
0.0
  0
LINE
  5
6010
330
20
100
AcDbEntity
  8
gaikei
100
AcDbLine
 10
-1475.4837287762
 20
-1517.862978813166
 30
0.0
 11
-1493.2567101477
 21
-1517.862978813167
 31
0.0
  0
LINE
  5
6011
330
20
100
AcDbEntity
  8
gaikei
100
AcDbLine
 10
-1480.118180905001
 20
-1532.777192375467
 30
0.0
 11
-1373.2567101477
 21
-1532.777192375467
 31
0.0
  0
LINE
  5
6012
330
20
100
AcDbEntity
  8
gaikei
100
AcDbLine
 10
-1496.7567101477
 20
-1531.777192375467
 30
0.0
 11
-1496.7567101477
 21
-1518.777192375466
 31
0.0
  0
ARC
  5
6013
330
20
100
AcDbEntity
  8
gaikei
100
AcDbCircle
 10
-1493.7567101477
 20
-1531.277192375467
 30
0.0
 40
1.5
100
AcDbArc
 50
296.3877999612959
 51
63.61220003870418
  0
LINE
  5
6014
330
20
100
AcDbEntity
  8
gaikei
100
AcDbLine
 10
-1480.0981837606
 20
-1532.691405937867
 30
0.0
 11
-1493.2567101477
 21
-1532.691405937867
 31
0.0
  0
LINE
  5
6015
330
20
100
AcDbEntity
  8
gaikei
100
AcDbLine
 10
-1497.7567101477
 20
-1537.777192375467
 30
0.0
 11
-1496.2567101477
 21
-1539.277192375467
 31
0.0
  0
LINE
  5
6016
330
20
100
AcDbEntity
  8
gaikei
100
AcDbLine
 10
-1497.7567101477
 20
-1532.777192375467
 30
0.0
 11
-1496.7567101477
 21
-1531.777192375467
 31
0.0
  0
LINE
  5
6017
330
20
100
AcDbEntity
  8
gaikei
100
AcDbLine
 10
-1497.7567101477
 20
-1532.777192375467
 30
0.0
 11
-1498.2567101477
 21
-1532.777192375467
 31
0.0
  0
LINE
  5
6018
330
20
100
AcDbEntity
  8
gaikei
100
AcDbLine
 10
-1498.2567101477
 20
-1537.777192375467
 30
0.0
 11
-1497.7567101477
 21
-1537.777192375467
 31
0.0
  0
LINE
  5
6019
330
20
100
AcDbEntity
  8
gaikei
100
AcDbLine
 10
-1498.2567101477
 20
-1537.777192375467
 30
0.0
 11
-1498.2567101477
 21
-1532.777192375467
 31
0.0
  0
ARC
  5
601A
330
20
100
AcDbEntity
  8
gaikei
100
AcDbCircle
 10
-1492.9567101477
 20
-1532.889643925167
 30
0.0
 40
0.3
100
AcDbArc
 50
116.3877999612958
 51
180.0
  0
LINE
  5
601B
330
20
100
AcDbEntity
  8
gaikei
100
AcDbLine
 10
-1479.3855494172
 20
-1529.862978813167
 30
0.0
 11
-1493.2567101477
 21
-1529.862978813167
 31
0.0
  0
LINE
  5
601C
330
20
100
AcDbEntity
  8
gaikei
100
AcDbLine
 10
-1479.0620189957
 20
-1528.691405937867
 30
0.0
 11
-1493.2567101477
 21
-1528.691405937867
 31
0.0
  0
LINE
  5
601D
330
20
100
AcDbEntity
  8
gaikei
100
AcDbLine
 10
-1478.2204449786
 20
-1525.862978813166
 30
0.0
 11
-1493.2567101477
 21
-1525.862978813167
 31
0.0
  0
LINE
  5
601E
330
20
100
AcDbEntity
  8
gaikei
100
AcDbLine
 10
-1477.8492832746
 20
-1524.691405937867
 30
0.0
 11
-1493.2567101477
 21
-1524.691405937867
 31
0.0
  0
LINE
  5
601F
330
20
100
AcDbEntity
  8
gaikei
100
AcDbLine
 10
-1476.906673335401
 20
-1521.862978813167
 30
0.0
 11
-1493.2567101477
 21
-1521.862978813167
 31
0.0
  0
LINE
  5
6020
330
20
100
AcDbEntity
  8
gaikei
100
AcDbLine
 10
-1476.4994443812
 20
-1520.691405937867
 30
0.0
 11
-1493.2567101477
 21
-1520.691405937867
 31
0.0
  0
LINE
  5
6021
330
20
100
AcDbEntity
  8
gaikei
100
AcDbLine
 10
-1498.2567101477
 20
-1517.777192375467
 30
0.0
 11
-1498.2567101477
 21
-1512.777192375466
 31
0.0
  0
LINE
  5
6022
330
20
100
AcDbEntity
  8
gaikei
100
AcDbLine
 10
-1496.7567101477
 20
-1518.777192375466
 30
0.0
 11
-1497.7567101477
 21
-1517.777192375467
 31
0.0
  0
LINE
  5
6023
330
20
100
AcDbEntity
  8
gaikei
100
AcDbLine
 10
-1497.7567101477
 20
-1517.777192375467
 30
0.0
 11
-1498.2567101477
 21
-1517.777192375467
 31
0.0
  0
ARC
  5
6024
330
20
100
AcDbEntity
  8
gaikei
100
AcDbCircle
 10
-1492.9567101477
 20
-1517.664740825867
 30
0.0
 40
0.3
100
AcDbArc
 50
180.0
 51
243.6122000387042
  0
ARC
  5
6025
330
20
100
AcDbEntity
  8
gaikei
100
AcDbCircle
 10
-1492.9567101477
 20
-1520.889643925167
 30
0.0
 40
0.3
100
AcDbArc
 50
116.3877999612958
 51
180.0
  0
ARC
  5
6026
330
20
100
AcDbEntity
  8
gaikei
100
AcDbCircle
 10
-1492.9567101477
 20
-1521.664740825866
 30
0.0
 40
0.3
100
AcDbArc
 50
180.0
 51
243.6122000387042
  0
ARC
  5
6027
330
20
100
AcDbEntity
  8
gaikei
100
AcDbCircle
 10
-1492.9567101477
 20
-1524.889643925167
 30
0.0
 40
0.3
100
AcDbArc
 50
116.3877999612958
 51
180.0
  0
ARC
  5
6028
330
20
100
AcDbEntity
  8
gaikei
100
AcDbCircle
 10
-1492.9567101477
 20
-1525.664740825867
 30
0.0
 40
0.3
100
AcDbArc
 50
180.0
 51
243.6122000387042
  0
ARC
  5
6029
330
20
100
AcDbEntity
  8
gaikei
100
AcDbCircle
 10
-1492.9567101477
 20
-1528.889643925167
 30
0.0
 40
0.3
100
AcDbArc
 50
116.3877999612958
 51
180.0
  0
ARC
  5
602A
330
20
100
AcDbEntity
  8
gaikei
100
AcDbCircle
 10
-1492.9567101477
 20
-1529.664740825866
 30
0.0
 40
0.3
100
AcDbArc
 50
180.0
 51
243.6122000387042
  0
ARC
  5
602B
330
20
100
AcDbEntity
  8
gaikei
100
AcDbCircle
 10
-1493.7567101477
 20
-1527.277192375467
 30
0.0
 40
1.5
100
AcDbArc
 50
296.3877999612959
 51
63.61220003870418
  0
LINE
  5
602C
330
20
100
AcDbEntity
  8
gaikei
100
AcDbLine
 10
-1493.2567101477
 20
-1529.664740825866
 30
0.0
 11
-1493.2567101477
 21
-1528.889643925167
 31
0.0
  0
ARC
  5
602D
330
20
100
AcDbEntity
  8
gaikei
100
AcDbCircle
 10
-1493.7567101477
 20
-1519.277192375467
 30
0.0
 40
1.5
100
AcDbArc
 50
296.3877999612959
 51
63.61220003870418
  0
LINE
  5
602E
330
20
100
AcDbEntity
  8
gaikei
100
AcDbLine
 10
-1493.2567101477
 20
-1521.664740825866
 30
0.0
 11
-1493.2567101477
 21
-1520.889643925167
 31
0.0
  0
LINE
  5
602F
330
20
100
AcDbEntity
  8
gaikei
100
AcDbLine
 10
-1493.2567101477
 20
-1525.664740825867
 30
0.0
 11
-1493.2567101477
 21
-1524.889643925167
 31
0.0
  0
ARC
  5
6030
330
20
100
AcDbEntity
  8
gaikei
100
AcDbCircle
 10
-1493.7567101477
 20
-1523.277192375467
 30
0.0
 40
1.5
100
AcDbArc
 50
296.3877999612959
 51
63.61220003870418
  0
LINE
  5
6031
330
20
100
AcDbEntity
  8
gaikei
100
AcDbLine
 10
-1374.7567101477
 20
-1531.777192375467
 30
0.0
 11
-1374.7567101477
 21
-1518.777192375466
 31
0.0
  0
LINE
  5
6032
330
20
100
AcDbEntity
  8
gaikei
100
AcDbLine
 10
-1375.2567101477
 20
-1539.277192375467
 30
0.0
 11
-1373.7567101477
 21
-1537.777192375467
 31
0.0
  0
LINE
  5
6033
330
20
100
AcDbEntity
  8
gaikei
100
AcDbLine
 10
-1373.2567101477
 20
-1537.777192375467
 30
0.0
 11
-1373.7567101477
 21
-1537.777192375467
 31
0.0
  0
LINE
  5
6034
330
20
100
AcDbEntity
  8
gaikei
100
AcDbLine
 10
-1373.2567101477
 20
-1537.777192375467
 30
0.0
 11
-1373.2567101477
 21
-1532.777192375467
 31
0.0
  0
LINE
  5
6035
330
20
100
AcDbEntity
  8
gaikei
100
AcDbLine
 10
-1373.7567101477
 20
-1532.777192375467
 30
0.0
 11
-1373.2567101477
 21
-1532.777192375467
 31
0.0
  0
LINE
  5
6036
330
20
100
AcDbEntity
  8
gaikei
100
AcDbLine
 10
-1373.7567101477
 20
-1532.777192375467
 30
0.0
 11
-1374.7567101477
 21
-1531.777192375467
 31
0.0
  0
LINE
  5
6037
330
20
100
AcDbEntity
  8
gaikei
100
AcDbLine
 10
-1475.8165150482
 20
-1518.777192375466
 30
0.0
 11
-1374.7567101477
 21
-1518.777192375466
 31
0.0
  0
LINE
  5
6038
330
20
100
AcDbEntity
  8
gaikei
100
AcDbLine
 10
-1475.4523072965
 20
-1517.777192375467
 30
0.0
 11
-1373.2567101477
 21
-1517.777192375467
 31
0.0
  0
LINE
  5
6039
330
20
100
AcDbEntity
  8
gaikei
100
AcDbLine
 10
-1373.2567101477
 20
-1517.777192375467
 30
0.0
 11
-1373.2567101477
 21
-1512.777192375466
 31
0.0
  0
LINE
  5
603A
330
20
100
AcDbEntity
  8
gaikei
100
AcDbLine
 10
-1373.7567101477
 20
-1517.777192375467
 30
0.0
 11
-1373.2567101477
 21
-1517.777192375467
 31
0.0
  0
LINE
  5
603B
330
20
100
AcDbEntity
  8
gaikei
100
AcDbLine
 10
-1374.7567101477
 20
-1518.777192375466
 30
0.0
 11
-1373.7567101477
 21
-1517.777192375467
 31
0.0
  0
LINE
  5
603C
330
20
100
AcDbEntity
  8
gaikei
100
AcDbLine
 10
-1498.2567101477
 20
-1512.777192375466
 30
0.0
 11
-1435.756710147701
 21
-1512.777192375466
 31
0.0
  0
LINE
  5
603D
330
20
100
AcDbEntity
  8
gaikei
100
AcDbLine
 10
-1498.2567101477
 20
-1512.777192375466
 30
0.0
 11
-1493.2567101477
 21
-1512.777192375466
 31
0.0
  0
LINE
  5
603E
330
20
100
AcDbEntity
  8
gaikei
100
AcDbLine
 10
-1493.2567101477
 20
-1517.664740825867
 30
0.0
 11
-1493.2567101477
 21
-1512.777192375466
 31
0.0
  0
LINE
  5
603F
330
20
100
AcDbEntity
  8
gaikei
100
AcDbLine
 10
-1373.2567101477
 20
-1512.777192375466
 30
0.0
 11
-1435.756710147701
 21
-1512.777192375466
 31
0.0
  0
ARC
  5
6040
330
20
100
AcDbEntity
  8
hasen
100
AcDbCircle
 10
-1377.7567101477
 20
-1531.277192375467
 30
0.0
 40
1.5
100
AcDbArc
 50
116.3877999612958
 51
243.6122000387042
  0
ARC
  5
6041
330
20
100
AcDbEntity
  8
hasen
100
AcDbCircle
 10
-1378.5567101477
 20
-1532.889643925167
 30
0.0
 40
0.3
100
AcDbArc
 50
0.0
 51
63.61220003870418
  0
ARC
  5
6042
330
20
100
AcDbEntity
  8
hasen
100
AcDbCircle
 10
-1378.5567101477
 20
-1517.664740825867
 30
0.0
 40
0.3
100
AcDbArc
 50
296.3877999612959
 51
0.0
  0
ARC
  5
6043
330
20
100
AcDbEntity
  8
hasen
100
AcDbCircle
 10
-1378.5567101477
 20
-1520.889643925167
 30
0.0
 40
0.3
100
AcDbArc
 50
0.0
 51
63.61220003870418
  0
ARC
  5
6044
330
20
100
AcDbEntity
  8
hasen
100
AcDbCircle
 10
-1378.5567101477
 20
-1521.664740825866
 30
0.0
 40
0.3
100
AcDbArc
 50
296.3877999612959
 51
0.0
  0
ARC
  5
6045
330
20
100
AcDbEntity
  8
hasen
100
AcDbCircle
 10
-1378.5567101477
 20
-1524.889643925167
 30
0.0
 40
0.3
100
AcDbArc
 50
0.0
 51
63.61220003870418
  0
ARC
  5
6046
330
20
100
AcDbEntity
  8
hasen
100
AcDbCircle
 10
-1378.5567101477
 20
-1525.664740825867
 30
0.0
 40
0.3
100
AcDbArc
 50
296.3877999612959
 51
0.0
  0
ARC
  5
6047
330
20
100
AcDbEntity
  8
hasen
100
AcDbCircle
 10
-1378.5567101477
 20
-1528.889643925167
 30
0.0
 40
0.3
100
AcDbArc
 50
0.0
 51
63.61220003870418
  0
ARC
  5
6048
330
20
100
AcDbEntity
  8
hasen
100
AcDbCircle
 10
-1378.5567101477
 20
-1529.664740825866
 30
0.0
 40
0.3
100
AcDbArc
 50
296.3877999612959
 51
0.0
  0
ARC
  5
6049
330
20
100
AcDbEntity
  8
hasen
100
AcDbCircle
 10
-1377.7567101477
 20
-1519.277192375467
 30
0.0
 40
1.5
100
AcDbArc
 50
116.3877999612958
 51
243.6122000387042
  0
LINE
  5
604A
330
20
100
AcDbEntity
  8
hasen
100
AcDbLine
 10
-1378.2567101477
 20
-1521.664740825866
 30
0.0
 11
-1378.2567101477
 21
-1520.889643925167
 31
0.0
  0
ARC
  5
604B
330
20
100
AcDbEntity
  8
hasen
100
AcDbCircle
 10
-1377.7567101477
 20
-1523.277192375467
 30
0.0
 40
1.5
100
AcDbArc
 50
116.3877999612958
 51
243.6122000387042
  0
LINE
  5
604C
330
20
100
AcDbEntity
  8
hasen
100
AcDbLine
 10
-1378.2567101477
 20
-1525.664740825867
 30
0.0
 11
-1378.2567101477
 21
-1524.889643925167
 31
0.0
  0
ARC
  5
604D
330
20
100
AcDbEntity
  8
hasen
100
AcDbCircle
 10
-1377.7567101477
 20
-1527.277192375467
 30
0.0
 40
1.5
100
AcDbArc
 50
116.3877999612958
 51
243.6122000387042
  0
LINE
  5
604E
330
20
100
AcDbEntity
  8
hasen
100
AcDbLine
 10
-1378.2567101477
 20
-1529.664740825866
 30
0.0
 11
-1378.2567101477
 21
-1528.889643925167
 31
0.0
  0
LINE
  5
604F
330
20
100
AcDbEntity
  8
hasen
100
AcDbLine
 10
-1378.2567101477
 20
-1517.664740825867
 30
0.0
 11
-1378.2567101477
 21
-1512.777192375466
 31
0.0
  0
LINE
  5
6055
330
20
100
AcDbEntity
  8
gaikei
100
AcDbLine
 10
-1479.8641381335
 20
-1531.777192375467
 30
0.0
 11
-1374.7567101477
 21
-1531.777192375467
 31
0.0
  0
LINE
  5
6056
330
20
100
AcDbEntity
  8
gaikei
100
AcDbLine
 10
-1373.2567101477
 20
-1537.777192375467
 30
0.0
 11
-1481.1615817642
 21
-1537.777192375467
 31
0.0
  0
LINE
  5
6057
330
20
100
AcDbEntity
  8
gaikei
100
AcDbLine
 10
-1375.2567101477
 20
-1539.277192375467
 30
0.0
 11
-1481.3068363642
 21
-1539.277192375467
 31
0.0
  0
LWPOLYLINE
  5
6058
330
20
100
AcDbEntity
  8
gaikei
100
AcDbPolyline
 90
      141
 70
     0
 43
0.0
 10
-1473.5596508895
 20
-1511.364095768267
 10
-1473.6413845029
 20
-1511.634951208667
 10
-1473.8604192492
 20
-1512.360155953166
 10
-1474.1775059877
 20
-1513.408667635967
 10
-1474.5533955776
 20
-1514.649443891767
 10
-1474.9488388783
 20
-1515.951442354866
 10
-1475.324586748801
 20
-1517.183620659867
 10
-1475.6413900486
 20
-1518.214936441266
 10
-1475.8165150482
 20
-1518.777192375466
 10
-1476.2694035478
 20
-1520.113778523467
 10
-1476.4908849289
 20
-1520.667317613567
 10
-1476.4994443812
 20
-1520.691405937867
 10
-1476.7982246409
 20
-1521.542871148866
 10
-1476.906673335401
 20
-1521.862978813167
 10
-1477.2045475307
 20
-1522.750896220367
 10
-1477.5618761296
 20
-1523.822886867866
 10
-1477.8492832746
 20
-1524.691405937867
 10
-1478.1303524368
 20
-1525.565918631667
 10
-1478.2204449786
 20
-1525.862978813166
 10
-1478.4904568724
 20
-1526.761640636967
 10
-1478.8126021715
 20
-1527.844243253067
 10
-1479.0620189957
 20
-1528.691405937867
 10
-1479.3255991987
 20
-1529.632188130267
 10
-1479.3855494172
 20
-1529.862978813167
 10
-1479.6327670374
 20
-1530.845248089267
 10
-1479.8641381335
 20
-1531.777192375467
 10
-1480.099048833
 20
-1532.688985759766
 10
-1480.118180905001
 20
-1532.777192375467
 10
-1480.2863274067
 20
-1533.556800108466
 10
-1480.511422385499
 20
-1534.608360732967
 10
-1480.7554742171
 20
-1535.763023020166
 10
-1480.980491277
 20
-1536.851935741067
 10
-1481.148481941001
 20
-1537.706247666866
 10
-1481.1615817642
 20
-1537.777192375467
 10
-1481.3068363642
 20
-1539.277192375467
 10
-1481.3068363642
 20
-1539.277192375467
 10
-1481.0298387701
 20
-1539.785801902667
 10
-1480.6978638072
 20
-1540.380191387467
 10
-1480.315702605
 20
-1541.052950234466
 10
-1479.8881462932
 20
-1541.796667847767
 10
-1479.4199860013
 20
-1542.603933631867
 10
-1478.916012859101
 20
-1543.467336991066
 10
-1478.381017996
 20
-1544.379467329666
 10
-1477.8197925418
 20
-1545.332914051967
 10
-1477.8197925418
 20
-1545.332914051967
 10
-1477.8197925418
 20
-1545.332914051967
 10
-1477.8197925418
 20
-1545.332914051967
 10
-1477.8197925418
 20
-1545.332914051967
 10
-1477.8197925418
 20
-1545.332914051967
 10
-1477.8197925418
 20
-1545.332914051967
 10
-1477.8197925418
 20
-1545.332914051967
 10
-1472.96062318
 20
-1548.558606165667
 10
-1472.3789232381
 20
-1549.550423536766
 10
-1471.8189040012
 20
-1550.509451334967
 10
-1471.2853565989
 20
-1551.428278964667
 10
-1470.783072160901
 20
-1552.299495830067
 10
-1470.316841816701
 20
-1553.115691335567
 10
-1469.891456696
 20
-1553.869454885467
 10
-1469.5117079285
 20
-1554.553375884166
 10
-1469.182386643599
 20
-1555.160043735966
 10
-1469.068932564
 20
-1555.373576969167
 10
-1467.9156203516
 20
-1557.054298622167
 10
-1467.1688002388
 20
-1557.530522394866
 10
-1466.8475156614
 20
-1557.632322077367
 10
-1466.9708100549
 20
-1558.189771460067
 10
-1467.557726855
 20
-1560.032944333167
 10
-1467.6164333191
 20
-1560.230777955867
 10
-1467.8024047649
 20
-1560.809952203967
 10
-1468.031691175
 20
-1561.438915567167
 10
-1468.300871777501
 20
-1562.114886594367
 10
-1468.6065258002
 20
-1562.835083834567
 10
-1468.9452324711
 20
-1563.596725836767
 10
-1469.3135710182
 20
-1564.397031149867
 10
-1469.708120669501
 20
-1565.233218323067
 10
-1470.125460653
 20
-1566.102505905067
 10
-1470.5621701965
 20
-1567.002112445067
 10
-1471.014828528101
 20
-1567.929256492067
 10
-1471.480014875701
 20
-1568.881156594867
 10
-1471.9543084674
 20
-1569.855031302467
 10
-1472.434288531
 20
-1570.848099164067
 10
-1472.9165342945
 20
-1571.857578728367
 10
-1473.397624986001
 20
-1572.880688544566
 10
-1473.8741398333
 20
-1573.914647161567
 10
-1474.3426580644
 20
-1574.956673128366
 10
-1474.799758907401
 20
-1576.003984993967
 10
-1475.2420215901
 20
-1577.053801307267
 10
-1475.6660253406
 20
-1578.103340617366
 10
-1476.0683493868
 20
-1579.149821473067
 10
-1476.445572956601
 20
-1580.190462423567
 10
-1476.7942752781
 20
-1581.222482017766
 10
-1477.1110355792
 20
-1582.243098804567
 10
-1477.3924330878
 20
-1583.249531333066
 10
-1477.635047032
 20
-1584.238998152166
 10
-1477.7764773797
 20
-1584.902489147267
 10
-1477.9525185921
 20
-1585.879585214066
 10
-1478.0996443173
 20
-1586.890302173066
 10
-1478.219740007
 20
-1587.930798661967
 10
-1478.314691113
 20
-1588.997233318567
 10
-1478.3863830869
 20
-1590.085764780567
 10
-1478.4367013806
 20
-1591.192551685866
 10
-1478.4675314457
 20
-1592.313752672166
 10
-1478.4807587341
 20
-1593.445526377366
 10
-1478.4782686974
 20
-1594.584031439066
 10
-1478.4619467875
 20
-1595.725426495167
 10
-1478.433678456
 20
-1596.865870183466
 10
-1478.3953491546
 20
-1598.001521141666
 10
-1478.3488443352
 20
-1599.128538007667
 10
-1478.2960494495
 20
-1600.243079419167
 10
-1478.2388499491
 20
-1601.341304013866
 10
-1478.179131286
 20
-1602.419370429767
 10
-1478.1187789117
 20
-1603.473437304467
 10
-1478.059678278
 20
-1604.499663275767
 10
-1478.0037148367
 20
-1605.494206981567
 10
-1477.9527740396
 20
-1606.453227059567
 10
-1477.9087413383
 20
-1607.372882147567
 10
-1477.8735021846
 20
-1608.249330883267
 10
-1477.8489420302
 20
-1609.078731904566
 10
-1477.836946327
 20
-1609.857243849267
 10
-1477.8394005265
 20
-1610.581025354967
 10
-1477.8581900807
 20
-1611.246235059667
 10
-1477.8895106378
 20
-1611.777192375466
 10
-1478.193092757201
 20
-1614.103878253567
 10
-1478.5984989498
 20
-1615.042831472166
 10
-1479.0921584985
 20
-1615.265987711267
 10
-1479.660500686501
 20
-1615.445282651366
 10
-1480.154883940801
 20
-1616.000300072467
 10
-1480.644330368
 20
-1616.747309732867
 10
-1481.2379295271
 20
-1617.556454605766
 10
-1481.8850023612
 20
-1618.410403982366
 10
-1480.3348698134
 20
-1619.291827153767
 10
-1480.9368528269
 20
-1620.183393411167
 10
-1481.440272344601
 20
-1621.067772045667
 10
-1481.7944493097
 20
-1621.927632348367
 10
-1481.8747165617
 20
-1622.223702549067
 10
-1481.950581763
 20
-1623.358392193267
 10
-1481.7857053144
 20
-1624.644401585767
 10
-1481.4805419601
 20
-1625.924075028867
 10
-1481.1355464445
 20
-1627.039756824467
 10
-1480.8511735118
 20
-1627.833791274867
 10
-1480.7278779061
 20
-1628.148522682167
 10
-1480.7277142853
 20
-1628.148919912667
  0
LINE
  5
6059
330
20
100
AcDbEntity
  8
kijun
100
AcDbLine
 10
-1435.756710147701
 20
-1507.314609147866
 30
0.0
 11
-1435.756710147701
 21
-1648.247383248766
 31
0.0
  0
TEXT
  5
605B
330
20
100
AcDbEntity
  8
sunpo
100
AcDbText
 10
-1472.669615141523
 20
-1379.912529946263
 30
0.0
 40
7.992399999999999
  1
ＶＵ－１００
 41
1.260878230358442
  7
MDRAFSTD
 72
     5
 11
-1404.814831141523
 21
-1379.912529946263
 31
0.0
100
AcDbText
  0
LINE
  5
605D
330
20
100
AcDbEntity
  8
gaikei
100
AcDbLine
 10
-1375.2567101477
 20
-1539.277192375467
 30
0.0
 11
-1375.2567101477
 21
-1561.219553133778
 31
0.0
  0
ARC
  5
605E
330
20
100
AcDbEntity
  8
gaikei
100
AcDbCircle
 10
-1435.756710147701
 20
-1773.777192375467
 30
0.0
 40
221.0
100
AcDbArc
 50
69.05534038825106
 51
98.74556336709156
  0
ARC
  5
605F
330
20
100
AcDbEntity
  8
gaikei
100
AcDbCircle
 10
-1435.756710147701
 20
-1773.777192375467
 30
0.0
 40
216.0
100
AcDbArc
 50
68.54682373980789
 51
98.50460857199724
  0
LINE
  5
6060
330
20
100
AcDbEntity
  8
gaikei
100
AcDbLine
 10
-1505.256710147713
 20
-1569.263745384815
 30
0.0
 11
-1508.256710147651
 21
-1565.007582518076
 31
0.0
  0
ARC
  5
6063
330
20
100
AcDbEntity
  8
gaikei
100
AcDbCircle
 10
-1435.756710147701
 20
-1773.777192375467
 30
0.0
 40
216.0
100
AcDbArc
 50
110.6006245493817
 51
111.45317626018
  0
LINE
  5
6064
330
20
100
AcDbEntity
  8
gaikei
100
AcDbLine
 10
-1493.2567101477
 20
-1532.889643925167
 30
0.0
 11
-1493.256710147701
 21
-1628.103496567657
 31
0.0
  0
LINE
  5
6065
330
20
100
AcDbEntity
  8
hasen
100
AcDbLine
 10
-1378.2567101477
 20
-1630.914496054838
 30
0.0
 11
-1378.2567101477
 21
-1532.889643925167
 31
0.0
  0
LINE
  5
6066
330
20
100
AcDbEntity
  8
hasen
100
AcDbLine
 10
-1366.2567101477
 20
-1569.26374538481
 30
0.0
 11
-1366.2567101477
 21
-1623.075277203332
 31
0.0
  0
LINE
  5
6067
330
20
100
AcDbEntity
  8
hasen
100
AcDbLine
 10
-1375.2567101477
 20
-1561.219553133778
 30
0.0
 11
-1375.2567101477
 21
-1623.075277203332
 31
0.0
  0
LINE
  5
6068
330
20
100
AcDbEntity
  8
gaikei
100
AcDbLine
 10
-1505.256710147713
 20
-1569.263745384815
 30
0.0
 11
-1505.256710146813
 21
-1623.075366595412
 31
0.0
  0
LINE
  5
6069
330
20
100
AcDbEntity
  8
gaikei
100
AcDbLine
 10
-1496.2567101477
 20
-1539.277192375467
 30
0.0
 11
-1496.2567101477
 21
-1623.075277203332
 31
0.0
  0
LINE
  5
606A
330
20
100
AcDbEntity
  8
gaikei
100
AcDbLine
 10
-1358.0567101477
 20
-1625.953953336404
 30
0.0
 11
-1358.056710147701
 21
-1640.81588221345
 31
0.0
  0
LINE
  5
606B
330
20
100
AcDbEntity
  8
gaikei
100
AcDbLine
 10
-1359.7567101477
 20
-1571.589161077865
 30
0.0
 11
-1359.7567101477
 21
-1625.072787598742
 31
0.0
  0
LINE
  5
606C
330
20
100
AcDbEntity
  8
gaikei
100
AcDbLine
 10
-1511.75671014677
 20
-1571.589161077515
 30
0.0
 11
-1511.75671014677
 21
-1625.072787598266
 31
0.0
  0
LINE
  5
606D
330
20
100
AcDbEntity
  8
gaikei
100
AcDbLine
 10
-1514.75671014677
 20
-1567.379517969607
 30
0.0
 11
-1514.75671014677
 21
-1572.742369520949
 31
0.0
  0
LINE
  5
6075
330
20
100
AcDbEntity
  8
sunpo
100
AcDbLine
 10
-1375.2567101477
 20
-1648.829717854344
 30
0.0
 11
-1375.2567101477
 21
-1648.829717854344
 31
0.0
  0
LINE
  5
6076
330
20
100
AcDbEntity
  8
sunpo
100
AcDbLine
 10
-1375.2567101477
 20
-1648.829717854344
 30
0.0
 11
-1375.2567101477
 21
-1648.829717854344
 31
0.0
  0
LINE
  5
6077
330
20
100
AcDbEntity
  8
gaikei
100
AcDbLine
 10
-1356.756710148631
 20
-1567.379517969607
 30
0.0
 11
-1356.756710148631
 21
-1572.742369520949
 31
0.0
  0
DIMENSION
  5
6078
330
20
100
AcDbEntity
  8
sunpo
100
AcDbDimension
  2
*D21
 10
-1356.756710148639
 20
-1462.735858724244
 30
0.0
 11
-1435.756710147704
 21
-1459.555858724244
 31
0.0
 70
    32
 71
     5
 42
157.999999998131
  3
STANDARD
100
AcDbAlignedDimension
 13
-1514.75671014677
 23
-1567.379517969607
 33
0.0
 14
-1356.756710148639
 24
-1567.379517969605
 34
0.0
100
AcDbRotatedDimension
1001
ACAD
1000
DSTYLE
1002
{
1070
     3
1000
\U+03C6<>
1070
   147
1040
0.09
1002
}
  0
LINE
  5
607B
330
20
100
AcDbEntity
  8
gaikei
100
AcDbLine
 10
-1513.4567101477
 20
-1625.953953336404
 30
0.0
 11
-1513.4567101477
 21
-1640.81588221345
 31
0.0
  0
ARC
  5
607C
330
20
100
AcDbEntity
  8
gaikei
100
AcDbCircle
 10
-1435.756710147701
 20
-1808.537217793767
 30
0.0
 40
54.5
100
AcDbArc
 50
193.0668033413812
 51
346.9331966586187
  0
DIMENSION
  5
6080
330
20
100
AcDbEntity
  8
sunpo
100
AcDbDimension
  2
*D18
 10
-1534.560246981958
 20
-1808.537217793767
 30
0.0
 11
-1537.740246981958
 21
-1813.537217793784
 31
0.0
 70
    32
 71
     5
 42
10.00000000003297
  3
STANDARD
100
AcDbAlignedDimension
 13
-1497.654125279508
 23
-1818.5372177938
 33
0.0
 14
-1495.4567101477
 24
-1808.537217793767
 34
0.0
 50
90.0
100
AcDbRotatedDimension
1001
ACAD
1000
DSTYLE
1002
{
1070
   147
1040
0.09
1002
}
  0
ARC
  5
6081
330
20
100
AcDbEntity
  8
gaikei
100
AcDbCircle
 10
-1491.767869750043
 20
-1821.5372177938
 30
0.0
 40
3.0
100
AcDbArc
 50
13.06680334138124
 51
90.0
  0
ARC
  5
6082
330
20
100
AcDbEntity
  8
gaikei
100
AcDbCircle
 10
-1379.745550545357
 20
-1821.5372177938
 30
0.0
 40
2.999999999999998
100
AcDbArc
 50
90.0
 51
166.9331966586188
  0
DIMENSION
  5
6087
330
20
100
AcDbEntity
  8
sunpo
100
AcDbDimension
  2
*D20
 10
-1330.0567101477
 20
-1512.777192375466
 30
0.0
 11
-1333.2367101477
 21
-1566.277192375467
 31
0.0
 70
    32
 71
     5
 42
107.0000000000009
  3
STANDARD
100
AcDbAlignedDimension
 13
-1435.756710147701
 23
-1619.777192375467
 33
0.0
 14
-1373.2567101477
 24
-1512.777192375466
 34
0.0
 50
90.0
100
AcDbRotatedDimension
1001
ACAD
1000
DSTYLE
1002
{
1070
   147
1040
0.09
1002
}
  0
ARC
  5
6089
330
20
100
AcDbEntity
  8
gaikei
100
AcDbCircle
 10
-1435.756710147701
 20
-1773.777192375467
 30
0.0
 40
154.0
100
AcDbArc
 50
59.69881672801586
 51
120.3011832716043
  0
ARC
  5
608E
330
20
100
AcDbEntity
  8
hasen
100
AcDbCircle
 10
-1435.7567101477
 20
-1773.777192375467
 30
0.0
 40
160.0
100
AcDbArc
 50
67.30695767618661
 51
112.6930423238134
  0
LINE
  5
6092
330
20
100
AcDbEntity
  8
gaikei
100
AcDbLine
 10
-1489.331424332653
 20
-1613.76332664678
 30
0.0
 11
-1489.331424332653
 21
-1629.396618889971
 31
0.0
  0
LINE
  5
609E
330
20
100
AcDbEntity
  8
hasen
100
AcDbLine
 10
-1366.256710147688
 20
-1569.263745384815
 30
0.0
 11
-1363.25671014775
 21
-1565.007582518076
 31
0.0
  0
ARC
  5
609F
330
20
100
AcDbEntity
  8
hasen
100
AcDbCircle
 10
-1370.7567101477
 20
-1623.075277203332
 30
0.0
 40
4.5
100
AcDbArc
 50
180.0
 51
0.0
  0
ARC
  5
60A0
330
20
100
AcDbEntity
  8
gaikei
100
AcDbCircle
 10
-1500.756710147701
 20
-1623.075277203332
 30
0.0
 40
4.499999999999998
100
AcDbArc
 50
180.0
 51
0.0
  0
LINE
  5
60A1
330
20
100
AcDbEntity
  8
gaikei
100
AcDbLine
 10
-1493.256710147701
 20
-1627.956160003427
 30
0.0
 11
-1496.028707310223
 21
-1632.061680316833
 31
0.0
  0
CIRCLE
  5
613F
330
20
100
AcDbEntity
  8
gaikei
100
AcDbCircle
 10
-1435.7567101477
 20
-1808.537217793767
 30
0.0
 40
77.7
  0
LINE
  5
6140
330
20
100
AcDbEntity
  8
gaikei
100
AcDbLine
 10
-1379.745550545357
 20
-1818.5372177938
 30
0.0
 11
-1376.320074627523
 21
-1818.5372177938
 31
0.0
  0
LINE
  5
6141
330
20
100
AcDbEntity
  8
gaikei
100
AcDbLine
 10
-1491.767869750043
 20
-1818.5372177938
 30
0.0
 11
-1495.193345667878
 21
-1818.5372177938
 31
0.0
  0
ARC
  5
6142
330
20
100
AcDbEntity
  8
gaikei
100
AcDbCircle
 10
-1435.756710147701
 20
-1808.537217793767
 30
0.0
 40
57.5
100
AcDbArc
 50
349.9845898317153
 51
190.0154101682845
  0
ARC
  5
6143
330
20
100
AcDbEntity
  8
gaikei
100
AcDbCircle
 10
-1435.7567101477
 20
-1808.537217793767
 30
0.0
 40
60.27199716252265
100
AcDbArc
 50
350.4496345917126
 51
189.5503654082874
  0
ARC
  5
6144
330
20
100
AcDbEntity
  8
gaikei
100
AcDbCircle
 10
-1435.7567101477
 20
-1808.537217793767
 30
0.0
 40
56.5
100
AcDbArc
 50
349.776702009726
 51
190.2232979902738
  0
ARC
  5
6145
330
20
100
AcDbEntity
  8
hasen
100
AcDbCircle
 10
-1435.756710147701
 20
-1808.537217793767
 30
0.0
 40
56.49999999999988
100
AcDbArc
 50
190.2232979902738
 51
349.776702009726
  0
ARC
  5
6146
330
20
100
AcDbEntity
  8
hasen
100
AcDbCircle
 10
-1435.756710147701
 20
-1808.537217793767
 30
0.0
 40
57.5
100
AcDbArc
 50
190.0154101682845
 51
349.9845898317153
  0
LINE
  5
6147
330
20
100
AcDbEntity
  8
hasen
100
AcDbLine
 10
-1382.181995962748
 20
-1613.76332664678
 30
0.0
 11
-1382.181995962748
 21
-1629.396618889971
 31
0.0
  0
ARC
  5
15839
330
20
100
AcDbEntity
  8
gaikei
100
AcDbCircle
 10
-1435.756710147701
 20
-1773.777192375467
 30
0.0
 40
167.0
100
AcDbArc
 50
62.27233750031594
 51
104.6324618858101
  0
TEXT
  5
23382
330
20
100
AcDbEntity
  8
sunpo
100
AcDbText
 10
-621.7985390964677
 20
-1379.912529946263
 30
0.0
 40
7.992399999999999
  1
ＶＵ－２００K
 41
1.079226281916975
  7
MDRAFSTD
 72
     5
 11
-553.9437550964676
 21
-1379.912529946263
 31
0.0
100
AcDbText
  0
CIRCLE
  5
23430
330
20
100
AcDbEntity
  8
gaikei
100
AcDbCircle
 10
-586.3498297904389
 20
-1796.607904511167
 30
0.0
 40
126.2
  0
LINE
  5
23432
330
20
100
AcDbEntity
  8
kijun
100
AcDbLine
 10
-457.3498297904388
 20
-1796.607904511167
 30
0.0
 11
-715.3498297904389
 21
-1796.607904511167
 31
0.0
  0
ARC
  5
23434
330
20
100
AcDbEntity
  8
gaikei
100
AcDbCircle
 10
-586.3498297904389
 20
-1796.607904511167
 30
0.0
 40
111.5
100
AcDbArc
 50
354.8544511601934
 51
185.1455488398064
  0
ARC
  5
23435
330
20
100
AcDbEntity
  8
gaikei
100
AcDbCircle
 10
-586.3498297904389
 20
-1796.607904511167
 30
0.0
 40
108.5
100
AcDbArc
 50
354.711778048999
 51
185.288221951001
  0
ARC
  5
23436
330
20
100
AcDbEntity
  8
hasen
100
AcDbCircle
 10
-586.3498297904389
 20
-1796.607904511167
 30
0.0
 40
108.5
100
AcDbArc
 50
185.288221951001
 51
354.711778048999
  0
ARC
  5
23437
330
20
100
AcDbEntity
  8
gaikei
100
AcDbCircle
 10
-586.3498297904389
 20
-1796.607904511167
 30
0.0
 40
107.5
100
AcDbArc
 50
354.6624431505993
 51
185.3375568494006
  0
ARC
  5
23438
330
20
100
AcDbEntity
  8
hasen
100
AcDbCircle
 10
-586.3498297904389
 20
-1796.607904511167
 30
0.0
 40
107.5
100
AcDbArc
 50
185.3375568494006
 51
354.6624431505993
  0
LINE
  5
23439
330
20
100
AcDbEntity
  8
gaikei
100
AcDbLine
 10
-690.5419600114389
 20
-1806.607904511167
 30
0.0
 11
-697.4004939037388
 21
-1806.607904511167
 31
0.0
  0
ARC
  5
2343A
330
20
100
AcDbEntity
  8
gaikei
100
AcDbCircle
 10
-690.5419600114389
 20
-1809.607904511167
 30
0.0
 40
3.0
100
AcDbArc
 50
7.112012487202356
 51
90.0
  0
LINE
  5
2343B
330
20
100
AcDbEntity
  8
gaikei
100
AcDbLine
 10
-482.1576995694388
 20
-1806.607904511167
 30
0.0
 11
-475.2991656771389
 21
-1806.607904511167
 31
0.0
  0
ARC
  5
2343C
330
20
100
AcDbEntity
  8
gaikei
100
AcDbCircle
 10
-586.3498297904389
 20
-1796.607904511167
 30
0.0
 40
102.0
100
AcDbArc
 50
187.1120124872023
 51
352.8879875127976
  0
ARC
  5
2343D
330
20
100
AcDbEntity
  8
gaikei
100
AcDbCircle
 10
-482.1576995694388
 20
-1809.607904511167
 30
0.0
 40
3.0
100
AcDbArc
 50
90.0
 51
172.8879875127975
  0
DIMENSION
  5
2343E
330
20
100
AcDbEntity
  8
sunpo
100
AcDbDimension
  2
*D24
 10
-729.3498297904386
 20
-1806.607904511167
 30
0.0
 11
-737.3498297904385
 21
-1801.607904511167
 31
0.0
 70
    32
  1
１０
 71
     5
 42
10.0
  3
STANDARD
100
AcDbAlignedDimension
 13
-715.3498297904389
 23
-1796.607904511167
 33
0.0
 14
-697.4004939037388
 24
-1806.607904511167
 34
0.0
 50
90.0
100
AcDbRotatedDimension
  0
LINE
  5
23442
330
20
100
AcDbEntity
  8
gaikei
100
AcDbLine
 10
-626.0454269392388
 20
-1488.492467057867
 30
0.0
 11
-473.3498297904388
 21
-1488.492467057867
 31
0.0
  0
LINE
  5
23443
330
20
100
AcDbEntity
  8
gaikei
100
AcDbLine
 10
-694.8498297904386
 20
-1483.492467057867
 30
0.0
 11
-586.3498297904389
 21
-1483.492467057867
 31
0.0
  0
LINE
  5
23444
330
20
100
AcDbEntity
  8
gaikei
100
AcDbLine
 10
-626.0768484189387
 20
-1488.578253495567
 30
0.0
 11
-694.7750001712388
 21
-1488.578253495567
 31
0.0
  0
ARC
  5
23445
330
20
100
AcDbEntity
  8
gaikei
100
AcDbCircle
 10
-694.5498297904387
 20
-1500.380015508267
 30
0.0
 40
0.3
100
AcDbArc
 50
180.0
 51
243.612200038698
  0
LINE
  5
23446
330
20
100
AcDbEntity
  8
gaikei
100
AcDbLine
 10
-698.3498297904389
 20
-1502.492467057867
 30
0.0
 11
-698.3498297904389
 21
-1489.492467057867
 31
0.0
  0
LINE
  5
23447
330
20
100
AcDbEntity
  8
gaikei
100
AcDbLine
 10
-699.3498297904387
 20
-1508.492467057867
 30
0.0
 11
-697.8498297904389
 21
-1509.992467057867
 31
0.0
  0
LINE
  5
23448
330
20
100
AcDbEntity
  8
gaikei
100
AcDbLine
 10
-699.3498297904387
 20
-1503.492467057867
 30
0.0
 11
-698.3498297904389
 21
-1502.492467057867
 31
0.0
  0
LINE
  5
23449
330
20
100
AcDbEntity
  8
gaikei
100
AcDbLine
 10
-699.3498297904387
 20
-1503.492467057867
 30
0.0
 11
-699.8498297904387
 21
-1503.492467057867
 31
0.0
  0
LINE
  5
2344A
330
20
100
AcDbEntity
  8
gaikei
100
AcDbLine
 10
-699.8498297904387
 20
-1508.492467057867
 30
0.0
 11
-699.3498297904387
 21
-1508.492467057867
 31
0.0
  0
LINE
  5
2344B
330
20
100
AcDbEntity
  8
gaikei
100
AcDbLine
 10
-699.8498297904387
 20
-1508.492467057867
 30
0.0
 11
-699.8498297904387
 21
-1503.492467057867
 31
0.0
  0
ARC
  5
2344C
330
20
100
AcDbEntity
  8
gaikei
100
AcDbCircle
 10
-694.5498297904387
 20
-1503.604918607567
 30
0.0
 40
0.3
100
AcDbArc
 50
116.3877999613019
 51
180.0
  0
ARC
  5
2344D
330
20
100
AcDbEntity
  8
gaikei
100
AcDbCircle
 10
-695.3498297904387
 20
-1501.992467057867
 30
0.0
 40
1.5
100
AcDbArc
 50
296.387799961302
 51
63.61220003869802
  0
LINE
  5
2344E
330
20
100
AcDbEntity
  8
gaikei
100
AcDbLine
 10
-698.3498297904389
 20
-1489.492467057867
 30
0.0
 11
-699.3498297904387
 21
-1488.492467057867
 31
0.0
  0
LINE
  5
2344F
330
20
100
AcDbEntity
  8
gaikei
100
AcDbLine
 10
-699.8498297904387
 20
-1483.492467057867
 30
0.0
 11
-694.8498297904386
 21
-1483.492467057867
 31
0.0
  0
LINE
  5
23450
330
20
100
AcDbEntity
  8
gaikei
100
AcDbLine
 10
-699.3498297904387
 20
-1488.492467057867
 30
0.0
 11
-699.8498297904387
 21
-1488.492467057867
 31
0.0
  0
LINE
  5
23451
330
20
100
AcDbEntity
  8
gaikei
100
AcDbLine
 10
-699.8498297904387
 20
-1488.492467057867
 30
0.0
 11
-699.8498297904387
 21
-1483.492467057867
 31
0.0
  0
ARC
  5
23452
330
20
100
AcDbEntity
  8
gaikei
100
AcDbCircle
 10
-694.5498297904387
 20
-1488.380015508267
 30
0.0
 40
0.3
100
AcDbArc
 50
180.0
 51
243.612200038698
  0
ARC
  5
23453
330
20
100
AcDbEntity
  8
gaikei
100
AcDbCircle
 10
-694.5498297904387
 20
-1491.604918607567
 30
0.0
 40
0.3
100
AcDbArc
 50
116.3877999613019
 51
180.0
  0
ARC
  5
23454
330
20
100
AcDbEntity
  8
gaikei
100
AcDbCircle
 10
-694.5498297904387
 20
-1492.380015508267
 30
0.0
 40
0.3
100
AcDbArc
 50
180.0
 51
243.612200038698
  0
ARC
  5
23455
330
20
100
AcDbEntity
  8
gaikei
100
AcDbCircle
 10
-694.5498297904387
 20
-1495.604918607567
 30
0.0
 40
0.3
100
AcDbArc
 50
116.3877999613019
 51
180.0
  0
ARC
  5
23456
330
20
100
AcDbEntity
  8
gaikei
100
AcDbCircle
 10
-694.5498297904387
 20
-1496.380015508267
 30
0.0
 40
0.3
100
AcDbArc
 50
180.0
 51
243.612200038698
  0
ARC
  5
23457
330
20
100
AcDbEntity
  8
gaikei
100
AcDbCircle
 10
-694.5498297904387
 20
-1499.604918607567
 30
0.0
 40
0.3
100
AcDbArc
 50
116.3877999613019
 51
180.0
  0
ARC
  5
23458
330
20
100
AcDbEntity
  8
gaikei
100
AcDbCircle
 10
-695.3498297904387
 20
-1497.992467057867
 30
0.0
 40
1.5
100
AcDbArc
 50
296.387799961302
 51
63.61220003869802
  0
LINE
  5
23459
330
20
100
AcDbEntity
  8
gaikei
100
AcDbLine
 10
-694.8498297904386
 20
-1500.380015508267
 30
0.0
 11
-694.8498297904386
 21
-1499.604918607567
 31
0.0
  0
ARC
  5
2345A
330
20
100
AcDbEntity
  8
gaikei
100
AcDbCircle
 10
-695.3498297904387
 20
-1489.992467057867
 30
0.0
 40
1.5
100
AcDbArc
 50
296.387799961302
 51
63.61220003869802
  0
LINE
  5
2345B
330
20
100
AcDbEntity
  8
gaikei
100
AcDbLine
 10
-694.8498297904386
 20
-1492.380015508267
 30
0.0
 11
-694.8498297904386
 21
-1491.604918607567
 31
0.0
  0
LINE
  5
2345C
330
20
100
AcDbEntity
  8
gaikei
100
AcDbLine
 10
-694.8498297904386
 20
-1496.380015508267
 30
0.0
 11
-694.8498297904386
 21
-1495.604918607567
 31
0.0
  0
ARC
  5
2345D
330
20
100
AcDbEntity
  8
gaikei
100
AcDbCircle
 10
-695.3498297904387
 20
-1493.992467057867
 30
0.0
 40
1.5
100
AcDbArc
 50
296.387799961302
 51
63.61220003869802
  0
LINE
  5
2345E
330
20
100
AcDbEntity
  8
gaikei
100
AcDbLine
 10
-694.8498297904386
 20
-1488.380015508267
 30
0.0
 11
-694.8498297904386
 21
-1483.492467057867
 31
0.0
  0
LINE
  5
2345F
330
20
100
AcDbEntity
  8
gaikei
100
AcDbLine
 10
-472.8498297904388
 20
-1483.492467057867
 30
0.0
 11
-586.3498297904389
 21
-1483.492467057867
 31
0.0
  0
LINE
  5
23460
330
20
100
AcDbEntity
  8
gaikei
100
AcDbLine
 10
-474.8498297904388
 20
-1509.992467057867
 30
0.0
 11
-474.8498297904388
 21
-1558.681696921567
 31
0.0
  0
LINE
  5
23461
330
20
100
AcDbEntity
  8
gaikei
100
AcDbLine
 10
-474.3498297904388
 20
-1502.492467057867
 30
0.0
 11
-474.3498297904388
 21
-1489.492467057867
 31
0.0
  0
LINE
  5
23462
330
20
100
AcDbEntity
  8
gaikei
100
AcDbLine
 10
-474.8498297904388
 20
-1509.992467057867
 30
0.0
 11
-473.3498297904388
 21
-1508.492467057867
 31
0.0
  0
LINE
  5
23463
330
20
100
AcDbEntity
  8
gaikei
100
AcDbLine
 10
-473.3498297904388
 20
-1503.492467057867
 30
0.0
 11
-474.3498297904388
 21
-1502.492467057867
 31
0.0
  0
LINE
  5
23464
330
20
100
AcDbEntity
  8
gaikei
100
AcDbLine
 10
-472.8498297904388
 20
-1508.492467057867
 30
0.0
 11
-472.8498297904388
 21
-1503.492467057867
 31
0.0
  0
LINE
  5
23465
330
20
100
AcDbEntity
  8
gaikei
100
AcDbLine
 10
-473.3498297904388
 20
-1503.492467057867
 30
0.0
 11
-472.8498297904388
 21
-1503.492467057867
 31
0.0
  0
LINE
  5
23466
330
20
100
AcDbEntity
  8
gaikei
100
AcDbLine
 10
-472.8498297904388
 20
-1508.492467057867
 30
0.0
 11
-473.3498297904388
 21
-1508.492467057867
 31
0.0
  0
LINE
  5
23467
330
20
100
AcDbEntity
  8
gaikei
100
AcDbLine
 10
-472.8498297904388
 20
-1508.492467057867
 30
0.0
 11
-473.3498297904388
 21
-1508.492467057867
 31
0.0
  0
LINE
  5
23468
330
20
100
AcDbEntity
  8
gaikei
100
AcDbLine
 10
-474.3498297904388
 20
-1489.492467057867
 30
0.0
 11
-473.3498297904388
 21
-1488.492467057867
 31
0.0
  0
LINE
  5
23469
330
20
100
AcDbEntity
  8
gaikei
100
AcDbLine
 10
-472.8498297904388
 20
-1483.492467057867
 30
0.0
 11
-477.8498297904388
 21
-1483.492467057867
 31
0.0
  0
LINE
  5
2346A
330
20
100
AcDbEntity
  8
gaikei
100
AcDbLine
 10
-472.8498297904388
 20
-1488.492467057867
 30
0.0
 11
-472.8498297904388
 21
-1483.492467057867
 31
0.0
  0
LINE
  5
2346B
330
20
100
AcDbEntity
  8
gaikei
100
AcDbLine
 10
-473.3498297904388
 20
-1488.492467057867
 30
0.0
 11
-472.8498297904388
 21
-1488.492467057867
 31
0.0
  0
LINE
  5
2346C
330
20
100
AcDbEntity
  8
gaikei
100
AcDbLine
 10
-626.5209615032389
 20
-1489.492467057867
 30
0.0
 11
-474.3498297904388
 21
-1489.492467057867
 31
0.0
  0
LINE
  5
2346D
330
20
100
AcDbEntity
  8
gaikei
100
AcDbLine
 10
-627.0832943195389
 20
-1491.406680620267
 30
0.0
 11
-694.7750001712388
 21
-1491.406680620267
 31
0.0
  0
LINE
  5
2346E
330
20
100
AcDbEntity
  8
gaikei
100
AcDbLine
 10
-627.0832943195389
 20
-1492.578253495567
 30
0.0
 11
-694.7750001712388
 21
-1492.578253495567
 31
0.0
  0
LINE
  5
2346F
330
20
100
AcDbEntity
  8
gaikei
100
AcDbLine
 10
-627.2643845484386
 20
-1495.406680620267
 30
0.0
 11
-694.7750001712388
 21
-1495.406680620267
 31
0.0
  0
LINE
  5
23470
330
20
100
AcDbEntity
  8
gaikei
100
AcDbLine
 10
-627.2643845484386
 20
-1496.578253495567
 30
0.0
 11
-694.7750001712388
 21
-1496.578253495567
 31
0.0
  0
LINE
  5
23471
330
20
100
AcDbEntity
  8
gaikei
100
AcDbLine
 10
-627.4550058421389
 20
-1499.406680620267
 30
0.0
 11
-694.7750001712388
 21
-1499.406680620267
 31
0.0
  0
LINE
  5
23472
330
20
100
AcDbEntity
  8
gaikei
100
AcDbLine
 10
-627.4550058421389
 20
-1500.578253495567
 30
0.0
 11
-694.7750001712388
 21
-1500.578253495567
 31
0.0
  0
LINE
  5
23473
330
20
100
AcDbEntity
  8
gaikei
100
AcDbLine
 10
-627.6360960710388
 20
-1503.406680620267
 30
0.0
 11
-694.7750001712388
 21
-1503.406680620267
 31
0.0
  0
LINE
  5
23474
330
20
100
AcDbEntity
  8
gaikei
100
AcDbLine
 10
-473.3498297904388
 20
-1508.492467057867
 30
0.0
 11
-626.7115827969388
 21
-1508.492467057867
 31
0.0
  0
LINE
  5
23475
330
20
100
AcDbEntity
  8
gaikei
100
AcDbLine
 10
-474.8498297904388
 20
-1509.992467057867
 30
0.0
 11
-626.7115827969388
 21
-1509.992467057867
 31
0.0
  0
LINE
  5
23476
330
20
100
AcDbEntity
  8
gaikei
100
AcDbLine
 10
-627.2643845484386
 20
-1503.492467057867
 30
0.0
 11
-473.3498297904388
 21
-1503.492467057867
 31
0.0
  0
LINE
  5
23477
330
20
100
AcDbEntity
  8
gaikei
100
AcDbLine
 10
-627.2643845484386
 20
-1502.492467057867
 30
0.0
 11
-474.3498297904388
 21
-1502.492467057867
 31
0.0
  0
ARC
  5
23478
330
20
100
AcDbEntity
  8
hasen
100
AcDbCircle
 10
-478.149829790439
 20
-1500.380015508267
 30
0.0
 40
0.3
100
AcDbArc
 50
296.387799961302
 51
0.0
  0
ARC
  5
23479
330
20
100
AcDbEntity
  8
hasen
100
AcDbCircle
 10
-477.3498297904388
 20
-1501.992467057867
 30
0.0
 40
1.5
100
AcDbArc
 50
116.3877999613019
 51
243.612200038698
  0
ARC
  5
2347A
330
20
100
AcDbEntity
  8
hasen
100
AcDbCircle
 10
-478.149829790439
 20
-1503.604918607567
 30
0.0
 40
0.3
100
AcDbArc
 50
0.0
 51
63.61220003869802
  0
LINE
  5
2347B
330
20
100
AcDbEntity
  8
hasen
100
AcDbLine
 10
-477.8498297904388
 20
-1488.380015508267
 30
0.0
 11
-477.8498297904388
 21
-1483.492467057867
 31
0.0
  0
ARC
  5
2347C
330
20
100
AcDbEntity
  8
hasen
100
AcDbCircle
 10
-477.3498297904388
 20
-1493.992467057867
 30
0.0
 40
1.5
100
AcDbArc
 50
116.3877999613019
 51
243.612200038698
  0
LINE
  5
2347D
330
20
100
AcDbEntity
  8
hasen
100
AcDbLine
 10
-477.8498297904388
 20
-1496.380015508267
 30
0.0
 11
-477.8498297904388
 21
-1495.604918607567
 31
0.0
  0
LINE
  5
2347E
330
20
100
AcDbEntity
  8
hasen
100
AcDbLine
 10
-477.8498297904388
 20
-1492.380015508267
 30
0.0
 11
-477.8498297904388
 21
-1491.604918607567
 31
0.0
  0
ARC
  5
2347F
330
20
100
AcDbEntity
  8
hasen
100
AcDbCircle
 10
-477.3498297904388
 20
-1489.992467057867
 30
0.0
 40
1.5
100
AcDbArc
 50
116.3877999613019
 51
243.612200038698
  0
LINE
  5
23480
330
20
100
AcDbEntity
  8
hasen
100
AcDbLine
 10
-477.8498297904388
 20
-1500.380015508267
 30
0.0
 11
-477.8498297904388
 21
-1499.604918607567
 31
0.0
  0
ARC
  5
23481
330
20
100
AcDbEntity
  8
hasen
100
AcDbCircle
 10
-477.3498297904388
 20
-1497.992467057867
 30
0.0
 40
1.5
100
AcDbArc
 50
116.3877999613019
 51
243.612200038698
  0
ARC
  5
23482
330
20
100
AcDbEntity
  8
hasen
100
AcDbCircle
 10
-478.149829790439
 20
-1499.604918607567
 30
0.0
 40
0.3
100
AcDbArc
 50
0.0
 51
63.61220003869802
  0
ARC
  5
23483
330
20
100
AcDbEntity
  8
hasen
100
AcDbCircle
 10
-478.149829790439
 20
-1496.380015508267
 30
0.0
 40
0.3
100
AcDbArc
 50
296.387799961302
 51
0.0
  0
ARC
  5
23484
330
20
100
AcDbEntity
  8
hasen
100
AcDbCircle
 10
-478.149829790439
 20
-1495.604918607567
 30
0.0
 40
0.3
100
AcDbArc
 50
0.0
 51
63.61220003869802
  0
ARC
  5
23485
330
20
100
AcDbEntity
  8
hasen
100
AcDbCircle
 10
-478.149829790439
 20
-1492.380015508267
 30
0.0
 40
0.3
100
AcDbArc
 50
296.387799961302
 51
0.0
  0
ARC
  5
23486
330
20
100
AcDbEntity
  8
hasen
100
AcDbCircle
 10
-478.149829790439
 20
-1491.604918607567
 30
0.0
 40
0.3
100
AcDbArc
 50
0.0
 51
63.61220003869802
  0
ARC
  5
23487
330
20
100
AcDbEntity
  8
hasen
100
AcDbCircle
 10
-478.149829790439
 20
-1488.380015508267
 30
0.0
 40
0.3
100
AcDbArc
 50
296.387799961302
 51
0.0
  0
LINE
  5
23488
330
20
100
AcDbEntity
  8
gaikei
100
AcDbLine
 10
-460.1498298080389
 20
-1574.193978783067
 30
0.0
 11
-460.1498297910389
 21
-1568.068764086967
 31
0.0
  0
LINE
  5
23489
330
20
100
AcDbEntity
  8
hasen
100
AcDbLine
 10
-474.8498297904388
 20
-1558.681696921567
 30
0.0
 11
-474.8498297904388
 21
-1558.681696921567
 31
0.0
  0
LINE
  5
2348A
330
20
100
AcDbEntity
  8
gaikei
100
AcDbLine
 10
-712.5498297904388
 20
-1574.193978758667
 30
0.0
 11
-712.5498297907388
 21
-1568.068764085667
 31
0.0
  0
LINE
  5
2348B
330
20
100
AcDbEntity
  8
gaikei
100
AcDbLine
 10
-705.3498297904389
 20
-1569.228771322967
 30
0.0
 11
-708.3498297904387
 21
-1565.218214922667
 31
0.0
  0
LINE
  5
2348C
330
20
100
AcDbEntity
  8
hasen
100
AcDbLine
 10
-467.3498297904388
 20
-1569.228771322967
 30
0.0
 11
-464.3498297904388
 21
-1565.218214922667
 31
0.0
  0
ARC
  5
2348D
330
20
100
AcDbEntity
  8
gaikei
100
AcDbCircle
 10
-586.3498297904389
 20
-1749.492467057867
 30
0.0
 40
216.0
100
AcDbArc
 50
125.1969550647985
 51
125.7506772967018
  0
ARC
  5
2348E
330
20
100
AcDbEntity
  8
gaikei
100
AcDbCircle
 10
-586.3498297904389
 20
-1749.492467057867
 30
0.0
 40
216.0
100
AcDbArc
 50
121.0779462050002
 51
123.4305585700998
  0
ARC
  5
2348F
330
20
100
AcDbEntity
  8
gaikei
100
AcDbCircle
 10
-586.3498297904389
 20
-1749.492467057867
 30
0.0
 40
221.0
100
AcDbArc
 50
120.2998183743016
 51
124.8228305299025
  0
ARC
  5
23490
330
20
100
AcDbEntity
  8
gaikei
100
AcDbCircle
 10
-586.3498297904389
 20
-1749.492467057867
 30
0.0
 40
221.0
100
AcDbArc
 50
55.17716947029605
 51
98.66688895019917
  0
ARC
  5
23491
330
20
100
AcDbEntity
  8
gaikei
100
AcDbCircle
 10
-586.3498297904389
 20
-1749.492467057867
 30
0.0
 40
216.0
100
AcDbArc
 50
54.2493227089972
 51
98.47047089180122
  0
LINE
  5
23492
330
20
100
AcDbEntity
  8
gaikei
100
AcDbLine
 10
-687.8560177197389
 20
-1631.813472026067
 30
0.0
 11
-687.8560177197389
 21
-1587.492467057867
 31
0.0
  0
ARC
  5
23493
330
20
100
AcDbEntity
  8
gaikei
100
AcDbCircle
 10
-586.3498297904389
 20
-1755.492467057867
 30
0.0
 40
160.0
100
AcDbArc
 50
37.93114997769447
 51
142.0688500223055
  0
LINE
  5
23494
330
20
100
AcDbEntity
  8
gaikei
100
AcDbLine
 10
-461.8498297904388
 20
-1572.982552322167
 30
0.0
 11
-461.8498297904388
 21
-1635.372735123467
 31
0.0
  0
LINE
  5
2349B
330
20
100
AcDbEntity
  8
gaikei
100
AcDbLine
 10
-460.1498297904388
 20
-1637.160053915905
 30
0.0
 11
-460.1498297904388
 21
-1657.170005005567
 31
0.0
  0
LINE
  5
2349E
330
20
100
AcDbEntity
  8
hasen
100
AcDbLine
 10
-484.8436418611388
 20
-1631.813472026067
 30
0.0
 11
-484.8436418611388
 21
-1587.492467057867
 31
0.0
  0
LINE
  5
2349F
330
20
100
AcDbEntity
  8
hasen
100
AcDbLine
 10
-477.8498297904388
 20
-1503.604918607567
 30
0.0
 11
-477.8498297904388
 21
-1633.850574602966
 31
0.0
  0
LINE
  5
234A0
330
20
100
AcDbEntity
  8
hasen
100
AcDbLine
 10
-474.8498297904388
 20
-1640.741650067267
 30
0.0
 11
-477.8498297904388
 21
-1633.850574602966
 31
0.0
  0
LINE
  5
234A1
330
20
100
AcDbEntity
  8
gaikei
100
AcDbLine
 10
-694.8498297904386
 20
-1503.604918607567
 30
0.0
 11
-694.8498297904386
 21
-1633.850574602966
 31
0.0
  0
LINE
  5
234A2
330
20
100
AcDbEntity
  8
gaikei
100
AcDbLine
 10
-697.8498297904389
 20
-1640.741650067267
 30
0.0
 11
-694.8498297904386
 21
-1633.850574602966
 31
0.0
  0
LINE
  5
234A9
330
20
100
AcDbEntity
  8
gaikei
100
AcDbLine
 10
-712.5498297904388
 20
-1637.160053915905
 30
0.0
 11
-712.5498297904388
 21
-1657.170005005567
 31
0.0
  0
LINE
  5
234AC
330
20
100
AcDbEntity
  8
gaikei
100
AcDbLine
 10
-710.8498297904389
 20
-1572.982552322167
 30
0.0
 11
-710.8498297904389
 21
-1635.372735123467
 31
0.0
  0
LWPOLYLINE
  5
234AD
330
20
100
AcDbEntity
  8
gaikei
100
AcDbPolyline
 90
      137
 70
     0
 43
0.0
 10
-637.3954580327389
 20
-1607.078593253767
 10
-637.3611820008387
 20
-1607.007128628267
 10
-637.2612162262388
 20
-1606.798602289467
 10
-637.0998541913387
 20
-1606.461815543967
 10
-636.8813893782388
 20
-1606.005569698367
 10
-636.6101152689387
 20
-1605.438666059267
 10
-636.2903253457389
 20
-1604.769905933267
 10
-635.9263130906389
 20
-1604.008090627067
 10
-635.5223719859387
 20
-1603.162021447167
 10
-635.0827955136387
 20
-1602.240499700267
 10
-634.6118771559388
 20
-1601.252326692867
 10
-634.1139103949387
 20
-1600.206303731767
 10
-633.5931887128387
 20
-1599.111232123267
 10
-633.0540055917387
 20
-1597.975913174267
 10
-632.5006545138387
 20
-1596.809148191267
 10
-631.9374289612389
 20
-1595.619738480767
 10
-631.3686224161387
 20
-1594.416485349567
 10
-630.798528360539
 20
-1593.208190104166
 10
-630.2314402766389
 20
-1592.003654051167
 10
-629.6716516466389
 20
-1590.811678497267
 10
-629.1234559526388
 20
-1589.641064748967
 10
-628.5911466768387
 20
-1588.500614112867
 10
-628.0790173012388
 20
-1587.399127895667
 10
-627.5913613081391
 20
-1586.345407403967
 10
-627.1324721795389
 20
-1585.348253944367
 10
-626.7066433977388
 20
-1584.416468823367
 10
-626.3261702818389
 20
-1583.576611341867
 10
-625.8633433774389
 20
-1582.551327240167
 10
-625.4012355225389
 20
-1581.530213786367
 10
-624.9408882287389
 20
-1580.514310775567
 10
-624.4833430075389
 20
-1579.504658003167
 10
-624.0296413706388
 20
-1578.502295264067
 10
-623.5808248293388
 20
-1577.508262353467
 10
-623.1379348955388
 20
-1576.523599066667
 10
-622.7020130805389
 20
-1575.549345198667
 10
-622.2741008959387
 20
-1574.586540544667
 10
-621.8552398534389
 20
-1573.636224899767
 10
-621.4464714645388
 20
-1572.699438059267
 10
-621.0488372407389
 20
-1571.777219818167
 10
-620.6633786937389
 20
-1570.870609971667
 10
-620.2911373350389
 20
-1569.980648314967
 10
-619.9331546761388
 20
-1569.108374643167
 10
-619.5904722286387
 20
-1568.254828751367
 10
-619.2641315041388
 20
-1567.421050434867
 10
-618.9551740141388
 20
-1566.608079488667
 10
-618.6646412703388
 20
-1565.816955707967
 10
-618.3935747842389
 20
-1565.048718887967
 10
-618.2094702818389
 20
-1564.505611341867
 10
-617.8073466745388
 20
-1563.256349562067
 10
-617.4653187128389
 20
-1562.107098047767
 10
-617.177812889639
 20
-1561.042250978767
 10
-616.9392556977387
 20
-1560.046202534767
 10
-616.7440736297387
 20
-1559.103346895767
 10
-616.5866931786388
 20
-1558.198078241567
 10
-616.4615408371389
 20
-1557.314790751867
 10
-616.3630430981387
 20
-1556.437878606667
 10
-616.2856264542389
 20
-1555.551735985567
 10
-616.2237173983387
 20
-1554.640757068567
 10
-616.1717424232389
 20
-1553.689336035367
 10
-616.1364702818389
 20
-1552.951611341867
 10
-616.1076176647387
 20
-1551.971422427267
 10
-616.1077280807387
 20
-1550.958688155067
 10
-616.1338044404389
 20
-1549.921880100967
 10
-616.1828496543389
 20
-1548.869469840867
 10
-616.2518666328387
 20
-1547.809928950367
 10
-616.3378582866388
 20
-1546.751729005267
 10
-616.4378275262388
 20
-1545.703341581367
 10
-616.5487772620389
 20
-1544.673238254367
 10
-616.6677104047388
 20
-1543.669890600067
 10
-616.7916298647387
 20
-1542.701770194067
 10
-616.9175385526387
 20
-1541.777348612267
 10
-617.0424393789389
 20
-1540.905097430367
 10
-617.1021702818388
 20
-1540.500611341867
 10
-617.2896631084388
 20
-1539.341903847367
 10
-617.4834315432389
 20
-1538.335456381467
 10
-617.6895339645389
 20
-1537.432963682967
 10
-617.9140287509389
 20
-1536.586120490867
 10
-618.1629742806387
 20
-1535.746621544267
 10
-618.4424289322388
 20
-1534.866161582067
 10
-618.7584510841388
 20
-1533.896435343367
 10
-619.1170991148387
 20
-1532.789137566967
 10
-619.1607702818389
 20
-1532.652611341867
 10
-619.4256887267389
 20
-1531.849433661267
 10
-619.7176699129388
 20
-1531.008268494967
 10
-620.0325365447388
 20
-1530.133100625267
 10
-620.3661113267387
 20
-1529.227914834567
 10
-620.7142169633388
 20
-1528.296695905467
 10
-621.0726761592389
 20
-1527.343428620167
 10
-621.4373116187388
 20
-1526.372097761267
 10
-621.8039460465388
 20
-1525.386688110967
 10
-622.1684021469387
 20
-1524.391184451967
 10
-622.5265026245389
 20
-1523.389571566367
 10
-622.8740701838391
 20
-1522.385834236867
 10
-623.2069275293389
 20
-1521.383957245767
 10
-623.3908702818389
 20
-1520.807611341867
 10
-623.6846941371387
 20
-1519.896104057767
 10
-623.989303030039
 20
-1518.988878765067
 10
-624.3007728978389
 20
-1518.082705832667
 10
-624.6151796780387
 20
-1517.174355629267
 10
-624.928599308239
 20
-1516.260598523567
 10
-625.2371077257389
 20
-1515.338204884167
 10
-625.5367808681389
 20
-1514.403945079967
 10
-625.8236946728389
 20
-1513.454589479567
 10
-626.0939250774389
 20
-1512.486908451767
 10
-626.3435480192389
 20
-1511.497672365167
 10
-626.5686394357389
 20
-1510.483651588567
 10
-626.7652752644388
 20
-1509.441616490667
 10
-626.9295314429387
 20
-1508.368337440167
 10
-627.0218661136388
 20
-1507.608530612867
 10
-627.1091805277388
 20
-1506.700772335667
 10
-627.1805357898387
 20
-1505.744363642267
 10
-627.2365129073389
 20
-1504.746622669467
 10
-627.2776928875389
 20
-1503.714867554067
 10
-627.3046567379387
 20
-1502.656416432867
 10
-627.3179854656389
 20
-1501.578587442667
 10
-627.3182600780387
 20
-1500.488698720167
 10
-627.3060615826389
 20
-1499.394068402267
 10
-627.2819709866388
 20
-1498.302014625667
 10
-627.246569297339
 20
-1497.219855527267
 10
-627.2004375222389
 20
-1496.154909243667
 10
-627.1441566685389
 20
-1495.114493911867
 10
-627.0783077437388
 20
-1494.105927668567
 10
-627.0034717549389
 20
-1493.136528650567
 10
-626.9202297096389
 20
-1492.213614994567
 10
-626.8291626152388
 20
-1491.344504837567
 10
-626.7308514788387
 20
-1490.536516316167
 10
-626.6981702818387
 20
-1490.293611341867
 10
-626.4405799564388
 20
-1488.902625211267
 10
-626.0755493498387
 20
-1487.539794642367
 10
-625.6378973353389
 20
-1486.238010398367
 10
-625.1624427857389
 20
-1485.030163242367
 10
-624.684004574439
 20
-1483.949143937667
 10
-624.2374015744387
 20
-1483.027843247567
 10
-623.8574526588388
 20
-1482.299151935167
 10
-623.5789767007389
 20
-1481.795960763767
 10
-623.4367925733388
 20
-1481.551160496567
 10
-623.4256702818389
 20
-1481.532611341867
  0
ARC
  5
234B0
330
20
100
AcDbEntity
  8
gaikei
100
AcDbCircle
 10
-586.3498297904389
 20
-1755.492467057867
 30
0.0
 40
173.0
100
AcDbArc
 50
43.15720104870037
 51
104.0070560801987
  0
LINE
  5
234B1
330
20
100
AcDbEntity
  8
hasen
100
AcDbLine
 10
-628.2871256195387
 20
-1587.492467057867
 30
0.0
 11
-477.8498297904388
 21
-1587.492467057867
 31
0.0
  0
LINE
  5
234B2
330
20
100
AcDbEntity
  8
gaikei
100
AcDbLine
 10
-694.8498297904386
 20
-1587.492467057867
 30
0.0
 11
-628.2871256195387
 21
-1587.492467057867
 31
0.0
  0
ARC
  5
234B3
330
20
100
AcDbEntity
  8
gaikei
100
AcDbCircle
 10
-586.3498297904389
 20
-1755.492467057867
 30
0.0
 40
173.0
100
AcDbArc
 50
136.0258536900001
 51
136.8427989512996
  0
ARC
  5
234B4
330
20
100
AcDbEntity
  8
hasen
100
AcDbCircle
 10
-471.0998297904388
 20
-1630.863016284767
 30
0.0
 40
3.75
100
AcDbArc
 50
180.0
 51
0.0
  0
LINE
  5
234B5
330
20
100
AcDbEntity
  8
hasen
100
AcDbLine
 10
-474.8498297904388
 20
-1558.681696921567
 30
0.0
 11
-474.8498297904388
 21
-1630.863016284767
 31
0.0
  0
LINE
  5
234B6
330
20
100
AcDbEntity
  8
hasen
100
AcDbLine
 10
-467.3498297904388
 20
-1569.228771322967
 30
0.0
 11
-467.3498297904388
 21
-1630.863016284767
 31
0.0
  0
ARC
  5
234B7
330
20
100
AcDbEntity
  8
gaikei
100
AcDbCircle
 10
-701.5998297904387
 20
-1630.863016284767
 30
0.0
 40
3.75
100
AcDbArc
 50
180.0
 51
0.0
  0
LINE
  5
234B8
330
20
100
AcDbEntity
  8
gaikei
100
AcDbLine
 10
-705.3498297904389
 20
-1569.228771322967
 30
0.0
 11
-705.3498297904389
 21
-1630.863016284767
 31
0.0
  0
LINE
  5
234B9
330
20
100
AcDbEntity
  8
gaikei
100
AcDbLine
 10
-697.8498297904389
 20
-1509.992467057867
 30
0.0
 11
-697.8498297904389
 21
-1630.863016284767
 31
0.0
  0
ARC
  5
234BA
330
20
100
AcDbEntity
  8
hasen
100
AcDbCircle
 10
-586.3498297904389
 20
-1755.492467057867
 30
0.0
 40
166.0
100
AcDbArc
 50
47.23916354960231
 51
132.7608364503976
  0
DIMENSION
  5
234BD
330
20
100
AcDbEntity
  8
sunpo
100
AcDbDimension
  2
*D27
 10
-432.1498293055388
 20
-1595.492467057867
 30
0.0
 11
-437.1498293055386
 21
-1539.492467057867
 31
0.0
 70
    32
  1
１１２
 71
     5
 42
112.0000000000002
  3
STANDARD
100
AcDbAlignedDimension
 13
-472.8498297904388
 23
-1483.492467057867
 33
0.0
 14
-586.3498297904389
 24
-1595.492467057867
 34
0.0
 50
90.0
100
AcDbRotatedDimension
  0
LINE
  5
234C2
330
20
100
AcDbEntity
  8
kijun
100
AcDbLine
 10
-586.3498297904389
 20
-1478.029883830267
 30
0.0
 11
-586.3498297904389
 21
-1657.170005005567
 31
0.0
  0
LINE
  5
234C3
330
20
100
AcDbEntity
  8
kijun
100
AcDbLine
 10
-586.3498297904389
 20
-1667.607904511167
 30
0.0
 11
-586.3498297904389
 21
-1925.607904511167
 31
0.0
  0
ARC
  5
24AF2
330
20
100
AcDbEntity
  8
gaikei
100
AcDbCircle
 10
-1435.756710147701
 20
-1773.777192375467
 30
0.0
 40
167.0
100
AcDbArc
 50
117.0707135767272
 51
117.7276624996806
  0
ARC
  5
24AFA
330
20
100
AcDbEntity
  8
gaikei
100
AcDbCircle
 10
-1435.756710147701
 20
-1773.777192375467
 30
0.0
 40
221.0
100
AcDbArc
 50
105.8878731158724
 51
110.9446596117489
  0
ARC
  5
24AFB
330
20
100
AcDbEntity
  8
gaikei
100
AcDbCircle
 10
-1435.756710147701
 20
-1773.777192375467
 30
0.0
 40
216.0
100
AcDbArc
 50
106.2657309993545
 51
108.7693508413768
  0
LINE
  5
25346
330
20
100
AcDbEntity
  8
gaikei
100
AcDbLine
 10
542.1606876958551
 20
-1848.692637330251
 30
0.0
 11
558.5482471472552
 21
-1848.692637330251
 31
0.0
  0
ARC
  5
25347
330
20
100
AcDbEntity
  8
gaikei
100
AcDbCircle
 10
542.1606876958551
 20
-1851.69263733025
 30
0.0
 40
3.0
100
AcDbArc
 50
90.0
 51
172.9886633705002
  0
LINE
  5
25348
330
20
100
AcDbEntity
  8
gaikei
100
AcDbLine
 10
330.7534976572553
 20
-1848.692637330251
 30
0.0
 11
314.3659382057553
 21
-1848.692637330251
 31
0.0
  0
ARC
  5
25349
330
20
100
AcDbEntity
  8
gaikei
100
AcDbCircle
 10
330.7534976572553
 20
-1851.69263733025
 30
0.0
 40
3.0
100
AcDbArc
 50
7.011336629499733
 51
90.0
  0
ARC
  5
2534A
330
20
100
AcDbEntity
  8
gaikei
100
AcDbCircle
 10
436.4570926765551
 20
-1838.69263733025
 30
0.0
 40
122.5
100
AcDbArc
 50
355.3175831377051
 51
184.6824168622949
  0
ARC
  5
2534B
330
20
100
AcDbEntity
  8
gaikei
100
AcDbCircle
 10
436.4570926765551
 20
-1838.69263733025
 30
0.0
 40
119.5
100
AcDbArc
 50
355.199760521106
 51
184.8002394788939
  0
ARC
  5
2534C
330
20
100
AcDbEntity
  8
hasen
100
AcDbCircle
 10
436.4570926765551
 20
-1838.69263733025
 30
0.0
 40
119.5
100
AcDbArc
 50
184.8002394788939
 51
355.199760521106
  0
ARC
  5
2534D
330
20
100
AcDbEntity
  8
gaikei
100
AcDbCircle
 10
436.4570926765551
 20
-1838.69263733025
 30
0.0
 40
118.5
100
AcDbArc
 50
355.1591559154023
 51
184.8408440845974
  0
ARC
  5
2534E
330
20
100
AcDbEntity
  8
hasen
100
AcDbCircle
 10
436.4570926765551
 20
-1838.69263733025
 30
0.0
 40
118.5
100
AcDbArc
 50
184.8408440845974
 51
355.1591559154023
  0
ARC
  5
2534F
330
20
100
AcDbEntity
  8
gaikei
100
AcDbCircle
 10
436.4570926765551
 20
-1838.69263733025
 30
0.0
 40
103.5
100
AcDbArc
 50
187.0113366294997
 51
352.9886633705002
  0
LWPOLYLINE
  5
25364
330
20
100
AcDbEntity
  8
gaikei
100
AcDbPolyline
 90
       61
 70
     0
 43
0.0
 10
400.375209645455
 20
-1472.906777462954
 10
400.186955028755
 20
-1473.305599209854
 10
399.672931777255
 20
-1474.421891949654
 10
398.9092507892552
 20
-1476.135396931654
 10
397.9720229628552
 20
-1478.325855404954
 10
396.9373591960551
 20
-1480.873008618554
 10
395.881370387255
 20
-1483.656597821554
 10
394.8801674344551
 20
-1486.556364263154
 10
394.0098612357552
 20
-1489.452049192354
 10
393.3465626893552
 20
-1492.223393858354
 10
392.9663826934551
 20
-1494.750139510154
 10
392.9276416743552
 20
-1496.693397615854
 10
393.3598205286552
 20
-1498.815269230554
 10
394.2659325565552
 20
-1500.749279490754
 10
395.5187544281551
 20
-1502.559664930254
 10
396.9910628135552
 20
-1504.310662083054
 10
398.5556343826551
 20
-1506.066507483154
 10
400.0852458058551
 20
-1507.891437664554
 10
401.4526737530551
 20
-1509.849689161154
 10
402.530694894355
 20
-1512.005498506854
 10
403.192085899855
 20
-1514.423102235754
 10
403.3390377156551
 20
-1516.300260233854
 10
403.2183665613549
 20
-1518.104496204154
 10
402.8776906958551
 20
-1520.076332425354
 10
402.3490165153551
 20
-1522.190918861154
 10
401.6643504162551
 20
-1524.423405474754
 10
400.8556987945552
 20
-1526.748942229954
 10
399.9550680467552
 20
-1529.142679089954
 10
398.9944645687552
 20
-1531.579766018454
 10
398.005894757155
 20
-1534.035352978854
 10
397.0213650078552
 20
-1536.484589934654
 10
396.0728817172552
 20
-1538.902626849254
 10
395.192451281655
 20
-1541.264613686354
 10
394.4120800970551
 20
-1543.545700409254
 10
393.7637745599552
 20
-1545.721036981554
 10
393.2795410663552
 20
-1547.765773366654
 10
392.9913860126552
 20
-1549.655059528154
 10
392.9276416743552
 20
-1551.258232343454
 10
393.3789241376552
 20
-1553.852402844854
 10
394.4494299395552
 20
-1555.969020801954
 10
395.9674653360552
 20
-1557.734745533854
 10
397.7613365832553
 20
-1559.276236359754
 10
399.6593499375553
 20
-1560.720152599054
 10
401.489811654755
 20
-1562.193153570954
 10
403.081027991255
 20
-1563.821898594654
 10
404.2613052031549
 20
-1565.733046989354
 10
404.8589495465551
 20
-1568.053258074353
 10
404.8827429475552
 20
-1570.020276444854
 10
404.6452644629551
 20
-1572.373732505354
 10
404.190679162055
 20
-1575.021574891854
 10
403.5631521142549
 20
-1577.871752239954
 10
402.8068483891551
 20
-1580.832213185554
 10
401.9659330560552
 20
-1583.810906364254
 10
401.0845711844551
 20
-1586.715780412054
 10
400.206927843755
 20
-1589.454783964554
 10
399.3771681033551
 20
-1591.935865657555
 10
398.6394570327551
 20
-1594.066974126854
 10
398.0379597013552
 20
-1595.756058008254
 10
397.6168411785551
 20
-1596.911065937454
 10
397.4202665338552
 20
-1597.439946550154
 10
397.4113815753552
 20
-1597.463552001354
  0
LINE
  5
25365
330
20
100
AcDbEntity
  8
gaikei
100
AcDbLine
 10
311.9570926765551
 20
-1477.021452808454
 30
0.0
 11
311.9570926765551
 21
-1482.021452808454
 31
0.0
  0
LINE
  5
25366
330
20
100
AcDbEntity
  8
gaikei
100
AcDbLine
 10
311.9570926765551
 20
-1497.021452808454
 30
0.0
 11
311.9570926765551
 21
-1502.021452808454
 31
0.0
  0
LINE
  5
25367
330
20
100
AcDbEntity
  8
gaikei
100
AcDbLine
 10
312.4570926765551
 20
-1482.021452808454
 30
0.0
 11
311.9570926765551
 21
-1482.021452808454
 31
0.0
  0
LINE
  5
25368
330
20
100
AcDbEntity
  8
gaikei
100
AcDbLine
 10
313.4570926765551
 20
-1483.021452808454
 30
0.0
 11
312.4570926765551
 21
-1482.021452808454
 31
0.0
  0
LINE
  5
25369
330
20
100
AcDbEntity
  8
gaikei
100
AcDbLine
 10
312.4570926765551
 20
-1497.021452808454
 30
0.0
 11
311.9570926765551
 21
-1497.021452808454
 31
0.0
  0
LINE
  5
2536A
330
20
100
AcDbEntity
  8
gaikei
100
AcDbLine
 10
313.4570926765551
 20
-1496.021452808454
 30
0.0
 11
313.4570926765551
 21
-1483.021452808454
 31
0.0
  0
LINE
  5
2536B
330
20
100
AcDbEntity
  8
gaikei
100
AcDbLine
 10
312.4570926765551
 20
-1497.021452808454
 30
0.0
 11
313.4570926765551
 21
-1496.021452808454
 31
0.0
  0
ARC
  5
2536C
330
20
100
AcDbEntity
  8
gaikei
100
AcDbCircle
 10
317.2570926765552
 20
-1481.909001258754
 30
0.0
 40
0.3
100
AcDbArc
 50
180.0
 51
243.6122000388071
  0
ARC
  5
2536D
330
20
100
AcDbEntity
  8
gaikei
100
AcDbCircle
 10
316.4570926765551
 20
-1483.521452808454
 30
0.0
 40
1.5
100
AcDbArc
 50
296.3877999612947
 51
63.61220003870517
  0
ARC
  5
2536E
330
20
100
AcDbEntity
  8
gaikei
100
AcDbCircle
 10
317.2570926765552
 20
-1485.133904358054
 30
0.0
 40
0.3
100
AcDbArc
 50
116.3877999611929
 51
180.0
  0
ARC
  5
2536F
330
20
100
AcDbEntity
  8
gaikei
100
AcDbCircle
 10
317.2570926765552
 20
-1485.909001258754
 30
0.0
 40
0.3
100
AcDbArc
 50
180.0
 51
243.6122000388071
  0
ARC
  5
25370
330
20
100
AcDbEntity
  8
gaikei
100
AcDbCircle
 10
316.4570926765551
 20
-1487.521452808454
 30
0.0
 40
1.5
100
AcDbArc
 50
296.3877999612947
 51
63.61220003870517
  0
ARC
  5
25371
330
20
100
AcDbEntity
  8
gaikei
100
AcDbCircle
 10
317.2570926765552
 20
-1489.133904358054
 30
0.0
 40
0.3
100
AcDbArc
 50
116.3877999611929
 51
180.0
  0
ARC
  5
25372
330
20
100
AcDbEntity
  8
gaikei
100
AcDbCircle
 10
317.2570926765552
 20
-1489.909001258754
 30
0.0
 40
0.3
100
AcDbArc
 50
180.0
 51
243.6122000388071
  0
ARC
  5
25373
330
20
100
AcDbEntity
  8
gaikei
100
AcDbCircle
 10
316.4570926765551
 20
-1491.521452808454
 30
0.0
 40
1.5
100
AcDbArc
 50
296.3877999612947
 51
63.61220003870517
  0
ARC
  5
25374
330
20
100
AcDbEntity
  8
gaikei
100
AcDbCircle
 10
317.2570926765552
 20
-1493.133904358054
 30
0.0
 40
0.3
100
AcDbArc
 50
116.3877999611929
 51
180.0
  0
ARC
  5
25375
330
20
100
AcDbEntity
  8
gaikei
100
AcDbCircle
 10
317.2570926765552
 20
-1493.909001258754
 30
0.0
 40
0.3
100
AcDbArc
 50
180.0
 51
243.6122000388071
  0
ARC
  5
25376
330
20
100
AcDbEntity
  8
gaikei
100
AcDbCircle
 10
316.4570926765551
 20
-1495.521452808454
 30
0.0
 40
1.5
100
AcDbArc
 50
296.3877999612947
 51
63.61220003870517
  0
ARC
  5
25377
330
20
100
AcDbEntity
  8
gaikei
100
AcDbCircle
 10
317.2570926765552
 20
-1497.133904358054
 30
0.0
 40
0.3
100
AcDbArc
 50
116.3877999611929
 51
180.0
  0
LINE
  5
25378
330
20
100
AcDbEntity
  8
gaikei
100
AcDbLine
 10
316.9570926765552
 20
-1481.909001258754
 30
0.0
 11
316.9570926765552
 21
-1477.021452808454
 31
0.0
  0
LINE
  5
25379
330
20
100
AcDbEntity
  8
gaikei
100
AcDbLine
 10
316.9570926765552
 20
-1485.909001258754
 30
0.0
 11
316.9570926765552
 21
-1485.133904358054
 31
0.0
  0
LINE
  5
2537A
330
20
100
AcDbEntity
  8
gaikei
100
AcDbLine
 10
316.9570926765552
 20
-1489.909001258754
 30
0.0
 11
316.9570926765552
 21
-1489.133904358054
 31
0.0
  0
LINE
  5
2537B
330
20
100
AcDbEntity
  8
gaikei
100
AcDbLine
 10
316.9570926765552
 20
-1493.909001258754
 30
0.0
 11
316.9570926765552
 21
-1493.133904358054
 31
0.0
  0
LINE
  5
2537C
330
20
100
AcDbEntity
  8
gaikei
100
AcDbLine
 10
436.4570926765551
 20
-1477.021452808454
 30
0.0
 11
311.9570926765551
 21
-1477.021452808454
 31
0.0
  0
LINE
  5
2537D
330
20
100
AcDbEntity
  8
gaikei
100
AcDbLine
 10
312.4570926765551
 20
-1502.021452808454
 30
0.0
 11
311.9570926765551
 21
-1502.021452808454
 31
0.0
  0
LINE
  5
2537E
330
20
100
AcDbEntity
  8
gaikei
100
AcDbLine
 10
313.9570926765551
 20
-1503.521452808454
 30
0.0
 11
312.4570926765551
 21
-1502.021452808454
 31
0.0
  0
LINE
  5
2537F
330
20
100
AcDbEntity
  8
gaikei
100
AcDbLine
 10
317.0319222957552
 20
-1482.107239246055
 30
0.0
 11
396.418377630055
 21
-1482.107239246055
 31
0.0
  0
LINE
  5
25380
330
20
100
AcDbEntity
  8
gaikei
100
AcDbLine
 10
317.0319222957552
 20
-1484.935666370854
 30
0.0
 11
395.4695136491551
 21
-1484.935666370854
 31
0.0
  0
LINE
  5
25381
330
20
100
AcDbEntity
  8
gaikei
100
AcDbLine
 10
317.0319222957552
 20
-1486.107239246054
 30
0.0
 11
395.0643418032552
 21
-1486.107239246054
 31
0.0
  0
LINE
  5
25382
330
20
100
AcDbEntity
  8
gaikei
100
AcDbLine
 10
317.0319222957552
 20
-1488.935666370854
 30
0.0
 11
394.1189408295551
 21
-1488.935666370854
 31
0.0
  0
LINE
  5
25383
330
20
100
AcDbEntity
  8
gaikei
100
AcDbLine
 10
317.0319222957552
 20
-1490.107239246054
 30
0.0
 11
393.8488262656552
 21
-1490.107239246054
 31
0.0
  0
LINE
  5
25384
330
20
100
AcDbEntity
  8
gaikei
100
AcDbLine
 10
317.0319222957552
 20
-1492.935666370854
 30
0.0
 11
393.2393369931552
 21
-1492.935666370854
 31
0.0
  0
LINE
  5
25385
330
20
100
AcDbEntity
  8
gaikei
100
AcDbLine
 10
317.0319222957552
 20
-1494.107239246054
 30
0.0
 11
393.0350195666552
 21
-1494.107239246054
 31
0.0
  0
LINE
  5
25386
330
20
100
AcDbEntity
  8
gaikei
100
AcDbLine
 10
317.0319222957552
 20
-1496.935666370854
 30
0.0
 11
392.9692224292552
 21
-1496.935666370854
 31
0.0
  0
LINE
  5
25387
330
20
100
AcDbEntity
  8
gaikei
100
AcDbLine
 10
316.9570926765552
 20
-1581.021452808454
 30
0.0
 11
402.7743741903551
 21
-1581.021452808454
 31
0.0
  0
LINE
  5
25388
330
20
100
AcDbEntity
  8
gaikei
100
AcDbLine
 10
560.9570926765551
 20
-1477.021452808454
 30
0.0
 11
560.9570926765551
 21
-1482.021452808454
 31
0.0
  0
LINE
  5
25389
330
20
100
AcDbEntity
  8
gaikei
100
AcDbLine
 10
560.9570926765551
 20
-1497.021452808454
 30
0.0
 11
560.9570926765551
 21
-1502.021452808454
 31
0.0
  0
LINE
  5
2538A
330
20
100
AcDbEntity
  8
gaikei
100
AcDbLine
 10
560.4570926765551
 20
-1482.021452808454
 30
0.0
 11
560.9570926765551
 21
-1482.021452808454
 31
0.0
  0
LINE
  5
2538B
330
20
100
AcDbEntity
  8
gaikei
100
AcDbLine
 10
559.4570926765551
 20
-1483.021452808454
 30
0.0
 11
560.4570926765551
 21
-1482.021452808454
 31
0.0
  0
LINE
  5
2538C
330
20
100
AcDbEntity
  8
gaikei
100
AcDbLine
 10
560.4570926765551
 20
-1497.021452808454
 30
0.0
 11
560.9570926765551
 21
-1497.021452808454
 31
0.0
  0
LINE
  5
2538D
330
20
100
AcDbEntity
  8
gaikei
100
AcDbLine
 10
559.4570926765551
 20
-1496.021452808454
 30
0.0
 11
559.4570926765551
 21
-1483.021452808454
 31
0.0
  0
LINE
  5
2538E
330
20
100
AcDbEntity
  8
gaikei
100
AcDbLine
 10
560.4570926765551
 20
-1497.021452808454
 30
0.0
 11
559.4570926765551
 21
-1496.021452808454
 31
0.0
  0
LINE
  5
2538F
330
20
100
AcDbEntity
  8
gaikei
100
AcDbLine
 10
436.4570926765551
 20
-1477.021452808454
 30
0.0
 11
560.9570926765551
 21
-1477.021452808454
 31
0.0
  0
LINE
  5
25390
330
20
100
AcDbEntity
  8
gaikei
100
AcDbLine
 10
560.4570926765551
 20
-1502.021452808454
 30
0.0
 11
560.9570926765551
 21
-1502.021452808454
 31
0.0
  0
LINE
  5
25391
330
20
100
AcDbEntity
  8
gaikei
100
AcDbLine
 10
560.4570926765551
 20
-1502.021452808454
 30
0.0
 11
558.9570926765551
 21
-1503.521452808454
 31
0.0
  0
LINE
  5
25392
330
20
100
AcDbEntity
  8
gaikei
100
AcDbLine
 10
396.418377630055
 20
-1482.021452808454
 30
0.0
 11
560.9570926765551
 21
-1482.021452808454
 31
0.0
  0
LINE
  5
25393
330
20
100
AcDbEntity
  8
gaikei
100
AcDbLine
 10
559.4570926765551
 20
-1483.021452808454
 30
0.0
 11
396.1482630661551
 21
-1483.021452808454
 31
0.0
  0
LINE
  5
25394
330
20
100
AcDbEntity
  8
gaikei
100
AcDbLine
 10
392.9692224292552
 20
-1496.021452808454
 30
0.0
 11
559.4570926765551
 21
-1496.021452808454
 31
0.0
  0
LINE
  5
25395
330
20
100
AcDbEntity
  8
gaikei
100
AcDbLine
 10
392.9692224292552
 20
-1497.021452808454
 30
0.0
 11
560.9570926765551
 21
-1497.021452808454
 31
0.0
  0
LINE
  5
25396
330
20
100
AcDbEntity
  8
gaikei
100
AcDbLine
 10
395.1993990852551
 20
-1502.021452808454
 30
0.0
 11
560.9570926765551
 21
-1502.021452808454
 31
0.0
  0
LINE
  5
25397
330
20
100
AcDbEntity
  8
gaikei
100
AcDbLine
 10
558.9570926765551
 20
-1503.521452808454
 30
0.0
 11
396.3491174854551
 21
-1503.521452808454
 31
0.0
  0
LINE
  5
25398
330
20
100
AcDbEntity
  8
hasen
100
AcDbLine
 10
402.7743741903551
 20
-1581.021452808454
 30
0.0
 11
555.9570926765551
 21
-1581.021452808454
 31
0.0
  0
ARC
  5
25399
330
20
100
AcDbEntity
  8
hasen
100
AcDbCircle
 10
555.6570926765552
 20
-1481.909001258754
 30
0.0
 40
0.3
100
AcDbArc
 50
296.3877999611928
 51
0.0
  0
ARC
  5
2539A
330
20
100
AcDbEntity
  8
hasen
100
AcDbCircle
 10
556.4570926765551
 20
-1483.521452808454
 30
0.0
 40
1.5
100
AcDbArc
 50
116.3877999611929
 51
243.6122000388071
  0
ARC
  5
2539B
330
20
100
AcDbEntity
  8
hasen
100
AcDbCircle
 10
555.6570926765552
 20
-1485.133904358054
 30
0.0
 40
0.3
100
AcDbArc
 50
0.0
 51
63.61220003870517
  0
ARC
  5
2539C
330
20
100
AcDbEntity
  8
hasen
100
AcDbCircle
 10
555.6570926765552
 20
-1485.909001258754
 30
0.0
 40
0.3
100
AcDbArc
 50
296.3877999611928
 51
0.0
  0
ARC
  5
2539D
330
20
100
AcDbEntity
  8
hasen
100
AcDbCircle
 10
556.4570926765551
 20
-1487.521452808454
 30
0.0
 40
1.5
100
AcDbArc
 50
116.3877999611929
 51
243.6122000388071
  0
ARC
  5
2539E
330
20
100
AcDbEntity
  8
hasen
100
AcDbCircle
 10
555.6570926765552
 20
-1489.133904358054
 30
0.0
 40
0.3
100
AcDbArc
 50
0.0
 51
63.61220003870517
  0
ARC
  5
2539F
330
20
100
AcDbEntity
  8
hasen
100
AcDbCircle
 10
555.6570926765552
 20
-1489.909001258754
 30
0.0
 40
0.3
100
AcDbArc
 50
296.3877999611928
 51
0.0
  0
ARC
  5
253A0
330
20
100
AcDbEntity
  8
hasen
100
AcDbCircle
 10
556.4570926765551
 20
-1491.521452808454
 30
0.0
 40
1.5
100
AcDbArc
 50
116.3877999611929
 51
243.6122000388071
  0
ARC
  5
253A1
330
20
100
AcDbEntity
  8
hasen
100
AcDbCircle
 10
555.6570926765552
 20
-1493.133904358054
 30
0.0
 40
0.3
100
AcDbArc
 50
0.0
 51
63.61220003870517
  0
ARC
  5
253A2
330
20
100
AcDbEntity
  8
hasen
100
AcDbCircle
 10
555.6570926765552
 20
-1493.909001258754
 30
0.0
 40
0.3
100
AcDbArc
 50
296.3877999611928
 51
0.0
  0
ARC
  5
253A3
330
20
100
AcDbEntity
  8
hasen
100
AcDbCircle
 10
556.4570926765551
 20
-1495.521452808454
 30
0.0
 40
1.5
100
AcDbArc
 50
116.3877999611929
 51
243.6122000388071
  0
ARC
  5
253A4
330
20
100
AcDbEntity
  8
hasen
100
AcDbCircle
 10
555.6570926765552
 20
-1497.133904358054
 30
0.0
 40
0.3
100
AcDbArc
 50
0.0
 51
63.61220003870517
  0
LINE
  5
253A5
330
20
100
AcDbEntity
  8
hasen
100
AcDbLine
 10
555.9570926765551
 20
-1481.909001258754
 30
0.0
 11
555.9570926765551
 21
-1477.021452808454
 31
0.0
  0
LINE
  5
253A6
330
20
100
AcDbEntity
  8
hasen
100
AcDbLine
 10
555.9570926765551
 20
-1485.909001258754
 30
0.0
 11
555.9570926765551
 21
-1485.133904358054
 31
0.0
  0
LINE
  5
253A7
330
20
100
AcDbEntity
  8
hasen
100
AcDbLine
 10
555.9570926765551
 20
-1489.909001258754
 30
0.0
 11
555.9570926765551
 21
-1489.133904358054
 31
0.0
  0
LINE
  5
253A8
330
20
100
AcDbEntity
  8
hasen
100
AcDbLine
 10
555.9570926765551
 20
-1493.909001258754
 30
0.0
 11
555.9570926765551
 21
-1493.133904358054
 31
0.0
  0
LINE
  5
253F6
330
20
100
AcDbEntity
  8
kijun
100
AcDbLine
 10
295.9570926765551
 20
-1838.69263733025
 30
0.0
 11
576.9570926765551
 21
-1838.69263733025
 31
0.0
  0
LINE
  5
253F7
330
20
100
AcDbEntity
  8
kijun
100
AcDbLine
 10
436.4570926765551
 20
-1698.19263733025
 30
0.0
 11
436.4570926765551
 21
-1979.192637330251
 31
0.0
  0
CIRCLE
  5
253F8
330
20
100
AcDbEntity
  8
gaikei
100
AcDbCircle
 10
436.4570926765551
 20
-1838.69263733025
 30
0.0
 40
137.7
  0
LINE
  5
25459
330
20
100
AcDbEntity
  8
kijun
100
AcDbLine
 10
436.4570926765551
 20
-1589.021452681254
 30
0.0
 11
436.4570926765551
 21
-1477.021452808454
 31
0.0
  0
ARC
  5
2545A
330
20
100
AcDbEntity
  8
gaikei
100
AcDbCircle
 10
436.4570926765551
 20
-1749.021452681254
 30
0.0
 40
173.0
100
AcDbArc
 50
141.8250479923005
 51
142.7454334458993
  0
ARC
  5
2545B
330
20
100
AcDbEntity
  8
gaikei
100
AcDbCircle
 10
436.4570926765551
 20
-1743.021452681254
 30
0.0
 40
221.0
100
AcDbArc
 50
123.6624206003035
 51
128.5411775082935
  0
ARC
  5
2545C
330
20
100
AcDbEntity
  8
gaikei
100
AcDbCircle
 10
436.4570926765551
 20
-1743.021452681254
 30
0.0
 40
216.0
100
AcDbArc
 50
129.0228025651944
 51
129.6056523939049
  0
LINE
  5
2545D
330
20
100
AcDbEntity
  8
gaikei
100
AcDbLine
 10
298.7570926765552
 20
-1576.604175933954
 30
0.0
 11
298.7570926765552
 21
-1570.163968029854
 31
0.0
  0
ARC
  5
2545E
330
20
100
AcDbEntity
  8
gaikei
100
AcDbCircle
 10
436.4570926765551
 20
-1743.021452681254
 30
0.0
 40
216.0
100
AcDbArc
 50
124.5503076646
 51
127.1688996559971
  0
LINE
  5
2545F
330
20
100
AcDbEntity
  8
gaikei
100
AcDbLine
 10
302.9570926765551
 20
-1566.900045691654
 30
0.0
 11
305.9570926765551
 21
-1570.900129191154
 31
0.0
  0
LINE
  5
25460
330
20
100
AcDbEntity
  8
gaikei
100
AcDbLine
 10
333.4413171855552
 20
-1626.596986172354
 30
0.0
 11
333.4413171855552
 21
-1581.021452808454
 31
0.0
  0
LINE
  5
25463
330
20
100
AcDbEntity
  8
hasen
100
AcDbLine
 10
555.9570926765551
 20
-1638.166818136754
 30
0.0
 11
555.9570926765551
 21
-1497.133904358054
 31
0.0
  0
LINE
  5
25464
330
20
100
AcDbEntity
  8
hasen
100
AcDbLine
 10
558.9570926765551
 20
-1646.095508430054
 30
0.0
 11
555.9570926765551
 21
-1638.166818136754
 31
0.0
  0
ARC
  5
25465
330
20
100
AcDbEntity
  8
gaikei
100
AcDbCircle
 10
436.4570926765551
 20
-1749.021452681254
 30
0.0
 40
173.0
100
AcDbArc
 50
37.25456655410065
 51
101.0862284927001
  0
LINE
  5
2546F
330
20
100
AcDbEntity
  8
gaikei
100
AcDbLine
 10
574.1570926765574
 20
-1644.294617533813
 30
0.0
 11
574.157092676555
 21
-1667.543173367054
 31
0.0
  0
LINE
  5
25471
330
20
100
AcDbEntity
  8
hasen
100
AcDbLine
 10
539.4728681675551
 20
-1626.596986172354
 30
0.0
 11
539.4728681675551
 21
-1581.021452808454
 31
0.0
  0
LINE
  5
25479
330
20
100
AcDbEntity
  8
gaikei
100
AcDbLine
 10
298.7570926765528
 20
-1644.294617533813
 30
0.0
 11
298.7570926765552
 21
-1667.543173367054
 31
0.0
  0
LINE
  5
2547B
330
20
100
AcDbEntity
  8
gaikei
100
AcDbLine
 10
316.9570926765552
 20
-1638.166818136654
 30
0.0
 11
316.9570926765552
 21
-1497.133904358054
 31
0.0
  0
LINE
  5
2547C
330
20
100
AcDbEntity
  8
gaikei
100
AcDbLine
 10
300.4570926765552
 20
-1642.096245176154
 30
0.0
 11
300.4570926765552
 21
-1575.212036974054
 31
0.0
  0
ARC
  5
2547D
330
20
100
AcDbEntity
  8
gaikei
100
AcDbCircle
 10
436.4570926765551
 20
-1749.021452681254
 30
0.0
 40
160.0
100
AcDbArc
 50
30.61316955849971
 51
149.3868304415002
  0
LINE
  5
2547E
330
20
100
AcDbEntity
  8
gaikei
100
AcDbLine
 10
313.9570926765551
 20
-1646.095508430054
 30
0.0
 11
316.9570926765552
 21
-1638.166818136754
 31
0.0
  0
ARC
  5
25481
330
20
100
AcDbEntity
  8
gaikei
100
AcDbCircle
 10
436.4570926765551
 20
-1743.021452681254
 30
0.0
 40
221.0
100
AcDbArc
 50
51.45882249170649
 51
99.19478771890387
  0
ARC
  5
25482
330
20
100
AcDbEntity
  8
gaikei
100
AcDbCircle
 10
436.4570926765551
 20
-1743.021452681254
 30
0.0
 40
216.0
100
AcDbArc
 50
50.3943476060949
 51
99.77413651029801
  0
LINE
  5
25483
330
20
100
AcDbEntity
  8
gaikei
100
AcDbLine
 10
572.4570926765551
 20
-1642.096245176154
 30
0.0
 11
572.4570926765551
 21
-1575.212036974054
 31
0.0
  0
LINE
  5
25484
330
20
100
AcDbEntity
  8
gaikei
100
AcDbLine
 10
574.157092676555
 20
-1576.604175933954
 30
0.0
 11
574.157092676555
 21
-1570.163968029854
 31
0.0
  0
LINE
  5
25485
330
20
100
AcDbEntity
  8
hasen
100
AcDbLine
 10
569.9570926765551
 20
-1566.900045691654
 30
0.0
 11
566.9570926765551
 21
-1570.900129191154
 31
0.0
  0
LINE
  5
25486
330
20
100
AcDbEntity
  8
gaikei
100
AcDbLine
 10
558.9570926765551
 20
-1503.521452808454
 30
0.0
 11
558.9570926765551
 21
-1559.079206310254
 31
0.0
  0
DIMENSION
  5
254C5
330
20
100
AcDbEntity
  8
sunpo
100
AcDbDimension
  2
*D38
 10
574.157092676555
 20
-1681.543173367054
 30
0.0
 11
436.4570926765551
 21
-1678.363173367054
 31
0.0
 70
    33
  1
\U+03C6<>
 71
     5
 42
275.3999999999999
  3
STANDARD
100
AcDbAlignedDimension
 13
298.7570926765552
 23
-1667.543173367054
 33
0.0
 14
574.157092676555
 24
-1667.543173367054
 34
0.0
1001
ACAD
1000
DSTYLE
1002
{
1070
     3
1000
\U+03C6<>
1070
   147
1040
0.09
1002
}
  0
ARC
  5
254DD
330
20
100
AcDbEntity
  8
hasen
100
AcDbCircle
 10
562.9570926765551
 20
-1635.453191269954
 30
0.0
 40
4.0
100
AcDbArc
 50
180.0
 51
0.0
  0
LINE
  5
254DE
330
20
100
AcDbEntity
  8
hasen
100
AcDbLine
 10
558.9570926765551
 20
-1635.453191269954
 30
0.0
 11
558.9570926765551
 21
-1559.079206310254
 31
0.0
  0
LINE
  5
254DF
330
20
100
AcDbEntity
  8
hasen
100
AcDbLine
 10
566.9570926765551
 20
-1570.900129191054
 30
0.0
 11
566.9570926765551
 21
-1635.453191269954
 31
0.0
  0
ARC
  5
254E0
330
20
100
AcDbEntity
  8
gaikei
100
AcDbCircle
 10
309.9570926765551
 20
-1635.453191269854
 30
0.0
 40
4.0
100
AcDbArc
 50
180.0
 51
0.0
  0
LINE
  5
254E1
330
20
100
AcDbEntity
  8
gaikei
100
AcDbLine
 10
305.9570926765551
 20
-1570.900129191154
 30
0.0
 11
305.9570926765551
 21
-1635.453191269854
 31
0.0
  0
LINE
  5
254E2
330
20
100
AcDbEntity
  8
gaikei
100
AcDbLine
 10
313.9570926765551
 20
-1503.521452808454
 30
0.0
 11
313.9570926765551
 21
-1635.453191269854
 31
0.0
  0
ARC
  5
254E3
330
20
100
AcDbEntity
  8
hasen
100
AcDbCircle
 10
436.4570926765551
 20
-1749.021452681254
 30
0.0
 40
166.0
100
AcDbArc
 50
41.91663262349988
 51
138.0833673765001
  0
ARC
  5
26261
330
20
100
AcDbEntity
  8
hasen
100
AcDbCircle
 10
-70.38593897808869
 20
-1766.617641986429
 30
0.0
 40
166.0
100
AcDbArc
 50
47.23916354965115
 51
124.2810650879443
  0
ARC
  5
26262
330
20
100
AcDbEntity
  8
gaikei
100
AcDbCircle
 10
-70.38593897808869
 20
-1766.617641986429
 30
0.0
 40
155.0
100
AcDbArc
 50
35.49230034461882
 51
144.5076996553811
  0
ARC
  5
26263
330
20
100
AcDbEntity
  8
hasen
100
AcDbCircle
 10
20.11406102191108
 20
-1497.11764198643
 30
0.0
 40
1.5
100
AcDbArc
 50
116.3877999612965
 51
243.612200038703
  0
ARC
  5
26264
330
20
100
AcDbEntity
  8
hasen
100
AcDbCircle
 10
20.11406102191108
 20
-1501.11764198643
 30
0.0
 40
1.5
100
AcDbArc
 50
116.3877999612965
 51
243.612200038703
  0
ARC
  5
26265
330
20
100
AcDbEntity
  8
hasen
100
AcDbCircle
 10
20.11406102191108
 20
-1493.11764198643
 30
0.0
 40
1.5
100
AcDbArc
 50
116.3877999612965
 51
243.612200038703
  0
ARC
  5
26266
330
20
100
AcDbEntity
  8
hasen
100
AcDbCircle
 10
20.11406102191108
 20
-1505.11764198643
 30
0.0
 40
1.5
100
AcDbArc
 50
116.3877999612965
 51
243.612200038703
  0
ARC
  5
26267
330
20
100
AcDbEntity
  8
gaikei
100
AcDbCircle
 10
-70.3859366717304
 20
-1783.617643628538
 30
0.0
 40
190.0
100
AcDbArc
 50
48.37821325147238
 51
102.7973950395402
  0
ARC
  5
26268
330
20
100
AcDbEntity
  8
gaikei
100
AcDbCircle
 10
-70.38593897808869
 20
-1756.617641986429
 30
0.0
 40
210.0
100
AcDbArc
 50
53.61706927656811
 51
98.72425618859445
  0
ARC
  5
26269
330
20
100
AcDbEntity
  8
gaikei
100
AcDbCircle
 10
-70.38593897808869
 20
-1756.617641986429
 30
0.0
 40
215.0
100
AcDbArc
 50
54.05723897619992
 51
98.913349489285
  0
ARC
  5
2626A
330
20
100
AcDbEntity
  8
gaikei
100
AcDbCircle
 10
-70.38593897809049
 20
-1819.508496451964
 30
0.0
 40
90.0000000000009
100
AcDbArc
 50
353.6206297915456
 51
186.3793702084544
  0
ARC
  5
2626B
330
20
100
AcDbEntity
  8
hasen
100
AcDbCircle
 10
-70.38593897809049
 20
-1819.508496451964
 30
0.0
 40
90.0000000000009
100
AcDbArc
 50
186.3793702084544
 51
353.6206297915456
  0
LINE
  5
2626C
330
20
100
AcDbEntity
  8
gaikei
100
AcDbLine
 10
-111.8425417064584
 20
-1506.61764198643
 30
0.0
 11
24.11406102191108
 21
-1506.61764198643
 31
0.0
  0
LINE
  5
2626D
330
20
100
AcDbEntity
  8
gaikei
100
AcDbLine
 10
-108.4896480795887
 20
-1492.61764198643
 30
0.0
 11
23.11406102191108
 21
-1492.61764198643
 31
0.0
  0
LINE
  5
2626E
330
20
100
AcDbEntity
  8
gaikei
100
AcDbLine
 10
-108.2706133332897
 20
-1491.61764198643
 30
0.0
 11
25.11406102191108
 21
-1491.61764198643
 31
0.0
  0
LINE
  5
2626F
330
20
100
AcDbEntity
  8
gaikei
100
AcDbLine
 10
25.11406102191108
 20
-1486.617641986429
 30
0.0
 11
-70.38593897808869
 21
-1486.61764198643
 31
0.0
  0
LINE
  5
26270
330
20
100
AcDbEntity
  8
gaikei
100
AcDbLine
 10
-111.506838734288
 20
-1505.61764198643
 30
0.0
 11
23.11406102191108
 21
-1505.61764198643
 31
0.0
  0
LINE
  5
26271
330
20
100
AcDbEntity
  8
gaikei
100
AcDbLine
 10
24.11406102191108
 20
-1511.61764198643
 30
0.0
 11
-113.4218789671363
 21
-1511.61764198643
 31
0.0
  0
LINE
  5
26272
330
20
100
AcDbEntity
  8
gaikei
100
AcDbLine
 10
22.61406102191108
 20
-1513.11764198643
 30
0.0
 11
-113.8553683944674
 21
-1513.11764198643
 31
0.0
  0
LINE
  5
26273
330
20
100
AcDbEntity
  8
hasen
100
AcDbLine
 10
-112.5187394681893
 20
-1600.61764198643
 30
0.0
 11
19.61406102191108
 21
-1600.61764198643
 31
0.0
  0
LINE
  5
26274
330
20
100
AcDbEntity
  8
gaikei
100
AcDbLine
 10
8.550744509372407
 20
-1829.508496451964
 30
0.0
 11
22.07486352762066
 21
-1829.508496451964
 31
0.0
  0
LINE
  5
26275
330
20
100
AcDbEntity
  8
kijun
100
AcDbLine
 10
63.61406102191063
 20
-1819.508496451964
 30
0.0
 11
-204.3859389780894
 21
-1819.508496451964
 31
0.0
  0
ARC
  5
2627B
330
20
100
AcDbEntity
  8
gaikei
100
AcDbCircle
 10
-70.38593897809049
 20
-1819.508496451964
 30
0.0
 40
93.00000000000084
100
AcDbArc
 50
353.8272293328944
 51
186.1727706671054
  0
CIRCLE
  5
2627C
330
20
100
AcDbEntity
  8
gaikei
100
AcDbCircle
 10
-70.38593897808869
 20
-1819.508496451964
 30
0.0
 40
126.1999999999999
  0
DIMENSION
  5
2627D
330
20
100
AcDbEntity
  8
sunpo
100
AcDbDimension
  2
*D50
 10
-215.5480052430184
 20
-1819.508496451964
 30
0.0
 11
-215.5480052430184
 21
-1824.508496451963
 31
0.0
 70
   160
  1
１０
 71
     5
 42
10.0
  3
STANDARD
100
AcDbAlignedDimension
 13
-155.8025649942899
 23
-1829.508496451964
 33
0.0
 14
-204.3859389780894
 24
-1819.508496451964
 34
0.0
 50
90.0
100
AcDbRotatedDimension
  0
ARC
  5
26286
330
20
100
AcDbEntity
  8
gaikei
100
AcDbCircle
 10
-70.38593897809049
 20
-1819.508496451964
 30
0.0
 40
77.0
100
AcDbArc
 50
189.3520350575579
 51
350.6479649424421
  0
ARC
  5
26287
330
20
100
AcDbEntity
  8
hasen
100
AcDbCircle
 10
-70.38593897809049
 20
-1819.508496451964
 30
0.0
 40
89.0000000000009
100
AcDbArc
 50
186.4513512701257
 51
353.5486487298741
  0
ARC
  5
26288
330
20
100
AcDbEntity
  8
gaikei
100
AcDbCircle
 10
-70.38593897809049
 20
-1819.508496451964
 30
0.0
 40
89.0000000000009
100
AcDbArc
 50
353.5486487298741
 51
186.4513512701257
  0
LINE
  5
26289
330
20
100
AcDbEntity
  8
kijun
100
AcDbLine
 10
-70.38593897808869
 20
-1688.962211102064
 30
0.0
 11
-70.38593897808869
 21
-1953.508496451964
 31
0.0
  0
LINE
  5
2628F
330
20
100
AcDbEntity
  8
gaikei
100
AcDbLine
 10
-149.3226224655545
 20
-1829.508496451964
 30
0.0
 11
-162.8467414838019
 21
-1829.508496451964
 31
0.0
  0
ARC
  5
26290
330
20
100
AcDbEntity
  8
gaikei
100
AcDbCircle
 10
-149.3226224655545
 20
-1832.508496451963
 30
0.0
 40
3.0
100
AcDbArc
 50
9.352035057557881
 51
90.0
  0
ARC
  5
26292
330
20
100
AcDbEntity
  8
gaikei
100
AcDbCircle
 10
8.550744509372407
 20
-1832.508496451964
 30
0.0
 40
3.0
100
AcDbArc
 50
90.0
 51
170.6479649424421
  0
ARC
  5
26294
330
20
100
AcDbEntity
  8
gaikei
100
AcDbCircle
 10
-70.38593897808869
 20
-1756.617641986429
 30
0.0
 40
215.0
100
AcDbArc
 50
115.7778950923885
 51
125.9427610238001
  0
ARC
  5
26295
330
20
100
AcDbEntity
  8
sunpo
100
AcDbCircle
 10
-70.38593897808869
 20
-1756.617641986429
 30
0.0
 40
210.0
100
AcDbArc
 50
116.4385730350034
 51
116.8321967312431
  0
LINE
  5
262A6
330
20
100
AcDbEntity
  8
gaikei
100
AcDbLine
 10
-194.8859389780892
 20
-1587.552826472135
 30
0.0
 11
-194.8859389780892
 21
-1641.583984003541
 31
0.0
  0
LINE
  5
262A7
330
20
100
AcDbEntity
  8
gaikei
100
AcDbLine
 10
-189.3859389780887
 20
-1583.588742666113
 30
0.0
 11
-189.3859389780893
 21
-1641.988191213348
 31
0.0
  0
ARC
  5
262A9
330
20
100
AcDbEntity
  8
gaikei
100
AcDbCircle
 10
-185.6359389780893
 20
-1641.988191213348
 30
0.0
 40
3.750000000000015
100
AcDbArc
 50
180.0
 51
312.7608364503489
  0
LINE
  5
262AD
330
20
100
AcDbEntity
  8
gaikei
100
AcDbLine
 10
-196.5859389780892
 20
-1641.89634521833
 30
0.0
 11
-196.2735777633004
 21
-1641.583984003541
 31
0.0
  0
LINE
  5
262AE
330
20
100
AcDbEntity
  8
gaikei
100
AcDbLine
 10
-196.5859389780892
 20
-1641.583984003541
 30
0.0
 11
-194.8859389780892
 21
-1641.583984003541
 31
0.0
  0
LINE
  5
262AF
330
20
100
AcDbEntity
  8
gaikei
100
AcDbLine
 10
-196.5859389780892
 20
-1641.583984003541
 30
0.0
 11
-196.5859389780887
 21
-1676.625642342016
 31
0.0
  0
LINE
  5
262BB
330
20
100
AcDbEntity
  8
gaikei
100
AcDbLine
 10
-192.9800435839179
 20
-1579.994638060284
 30
0.0
 11
-189.3859389780887
 21
-1583.588742666113
 31
0.0
  0
LINE
  5
262BC
330
20
100
AcDbEntity
  8
gaikei
100
AcDbLine
 10
-194.8859389780892
 20
-1587.552826472135
 30
0.0
 11
-196.5859389779885
 21
-1587.552826472135
 31
0.0
  0
LINE
  5
262BE
330
20
100
AcDbEntity
  8
gaikei
100
AcDbLine
 10
-196.5859389779885
 20
-1587.552826472135
 30
0.0
 11
-196.5859389779885
 21
-1582.552826472135
 31
0.0
  0
LINE
  5
262BF
330
20
100
AcDbEntity
  8
kijun
100
AcDbLine
 10
-70.38593897808869
 20
-1491.15505875883
 30
0.0
 11
-70.38593897808869
 21
-1637.08783285973
 31
0.0
  0
LINE
  5
262C0
330
20
100
AcDbEntity
  8
gaikei
100
AcDbLine
 10
-160.3859389780893
 20
-1486.617641986429
 30
0.0
 11
-70.38593897808869
 21
-1486.61764198643
 31
0.0
  0
LWPOLYLINE
  5
262C1
330
20
100
AcDbEntity
  8
gaikei
100
AcDbPolyline
 90
      141
 70
     0
 43
0.0
 10
-108.1888797198894
 20
-1486.617641986429
 10
-108.2706133332897
 20
-1491.61764198643
 10
-108.4896480795887
 20
-1492.61764198643
 10
-108.6481914488395
 20
-1494.93337961668
 10
-109.1826244079896
 20
-1498.48989350273
 10
-109.5780677086893
 20
-1499.79189196583
 10
-109.9538155791897
 20
-1501.02407027083
 10
-110.2706188789893
 20
-1502.05538605223
 10
-110.4457438785894
 20
-1502.61764198643
 10
-110.8986323781894
 20
-1503.954228134429
 10
-111.1201137592893
 20
-1504.50776722453
 10
-111.1286732115893
 20
-1504.53185554883
 10
-111.4274534712899
 20
-1505.38332075983
 10
-111.5359021657896
 20
-1505.703428424129
 10
-111.8337763610882
 20
-1506.59134583133
 10
-112.1911049599894
 20
-1507.66333647883
 10
-112.4785121049899
 20
-1508.53185554883
 10
-112.7595812671893
 20
-1509.40636824263
 10
-112.8496738089893
 20
-1509.703428424129
 10
-113.1196857027894
 20
-1510.60209024793
 10
-113.4418310018893
 20
-1511.68469286403
 10
-113.6912478260897
 20
-1512.53185554883
 10
-113.9548280290894
 20
-1513.47263774123
 10
-114.0147782475901
 20
-1513.703428424129
 10
-114.2619958677892
 20
-1514.68569770023
 10
-114.4933669638897
 20
-1515.61764198643
 10
-114.7282776633899
 20
-1516.52943537073
 10
-114.7474097353899
 20
-1516.61764198643
 10
-114.9155562370899
 20
-1517.397249719429
 10
-115.1406512158892
 20
-1518.44881034393
 10
-115.3847030474894
 20
-1519.60347263113
 10
-115.6097201073894
 20
-1520.692385352029
 10
-115.7777107713893
 20
-1521.54669727783
 10
-115.7908105945896
 20
-1521.61764198643
 10
-116.8381369528899
 20
-1521.292936340129
 10
-115.9360651945881
 20
-1523.11764198643
 10
-115.6590676004896
 20
-1523.62625151363
 10
-115.3270926375894
 20
-1524.22064099843
 10
-114.9449314353894
 20
-1524.89339984543
 10
-114.5173751235895
 20
-1525.63711745873
 10
-114.0492148316893
 20
-1526.44438324283
 10
-113.5452416894895
 20
-1527.30778660203
 10
-113.0102468263896
 20
-1528.21991694063
 10
-112.4490213721899
 20
-1529.17336366293
 10
-111.8663564563894
 20
-1530.160716173429
 10
-111.2670432086893
 20
-1531.17456387623
 10
-110.6558727586893
 20
-1532.20749617583
 10
-110.0376362358893
 20
-1533.25210247643
 10
-109.4171247700901
 20
-1534.30097218253
 10
-108.7991294908893
 20
-1535.34669469833
 10
-108.1884415277893
 20
-1536.38185942833
 10
-107.5898520103901
 20
-1537.399055776629
 10
-107.0081520684894
 20
-1538.39087314773
 10
-106.4481328315894
 20
-1539.34990094593
 10
-105.9145854292892
 20
-1540.26872857563
 10
-105.4123009912887
 20
-1541.13994544103
 10
-104.9460706470884
 20
-1541.95614094653
 10
-104.5206855263896
 20
-1542.70990449643
 10
-104.1409367588894
 20
-1543.393825495129
 10
-103.8116154739894
 20
-1544.000493346929
 10
-103.6981613943894
 20
-1544.214026580129
 10
-102.5448491819895
 20
-1545.89474823313
 10
-101.7980290691894
 20
-1546.370972005829
 10
-101.4767444917893
 20
-1546.47277168833
 10
-101.6000388852899
 20
-1547.03022107103
 10
-102.1869556853894
 20
-1548.873393944129
 10
-102.2456621494893
 20
-1549.07122756683
 10
-102.4316335952892
 20
-1549.65040181493
 10
-102.6609200053899
 20
-1550.27936517813
 10
-102.9301006078899
 20
-1550.95533620533
 10
-103.2357546305893
 20
-1551.67553344553
 10
-103.5744613014899
 20
-1552.437175447729
 10
-103.9427998485894
 20
-1553.23748076083
 10
-104.3373494998895
 20
-1554.07366793403
 10
-104.7546894833899
 20
-1554.942955516029
 10
-105.1913990268899
 20
-1555.84256205603
 10
-105.6440573584893
 20
-1556.769706103029
 10
-106.1092437060897
 20
-1557.72160620583
 10
-106.5835372977899
 20
-1558.69548091343
 10
-107.0635173613893
 20
-1559.68854877503
 10
-107.5457631248896
 20
-1560.69802833933
 10
-108.0268538163895
 20
-1561.72113815553
 10
-108.5033686636893
 20
-1562.755096772529
 10
-108.9718868947893
 20
-1563.79712273933
 10
-109.4289877377894
 20
-1564.844434604929
 10
-109.8712504204895
 20
-1565.89425091823
 10
-110.2952541709894
 20
-1566.94379022833
 10
-110.6975782171894
 20
-1567.99027108403
 10
-111.0748017869894
 20
-1569.030912034529
 10
-111.4235041084894
 20
-1570.06293162873
 10
-111.7402644095896
 20
-1571.08354841553
 10
-112.0216619181881
 20
-1572.08998094403
 10
-112.2642758623899
 20
-1573.07944776313
 10
-112.4057062100894
 20
-1573.74293875823
 10
-112.5817474224884
 20
-1574.72003482503
 10
-112.7288731476899
 20
-1575.730751784029
 10
-112.8489688373895
 20
-1576.77124827293
 10
-112.9439199433893
 20
-1577.83768292953
 10
-113.0156119172893
 20
-1578.92621439153
 10
-113.0659302109893
 20
-1580.033001296829
 10
-113.0967602760895
 20
-1581.154202283129
 10
-113.1099875644895
 20
-1582.28597598833
 10
-113.1074975277893
 20
-1583.42448105003
 10
-113.0911756178893
 20
-1584.56587610613
 10
-113.0629072863894
 20
-1585.706319794429
 10
-113.0245779849899
 20
-1586.84197075263
 10
-112.9780731655892
 20
-1587.96898761863
 10
-112.9252782798894
 20
-1589.08352903013
 10
-112.8680787794897
 20
-1590.18175362483
 10
-112.8083601163894
 20
-1591.259820040729
 10
-112.7480077420896
 20
-1592.313886915429
 10
-112.6889071083899
 20
-1593.34011288673
 10
-112.6329436670896
 20
-1594.33465659253
 10
-112.5820028699893
 20
-1595.29367667053
 10
-112.5379701686893
 20
-1596.21333175853
 10
-112.5027310149894
 20
-1597.089780494229
 10
-112.4781708605892
 20
-1597.919181515529
 10
-112.4661751573894
 20
-1598.697693460229
 10
-112.4686293568893
 20
-1599.42147496593
 10
-112.4874189110894
 20
-1600.08668467063
 10
-112.5187394681893
 20
-1600.61764198643
 10
-112.8223215875894
 20
-1602.94432786453
 10
-113.2277277801895
 20
-1603.88328108313
 10
-113.7213873288897
 20
-1604.106437322229
 10
-114.2897295168893
 20
-1604.28573226233
 10
-114.7841127711899
 20
-1604.84074968343
 10
-115.2735591983892
 20
-1605.587759343829
 10
-115.8671583574894
 20
-1606.39690421673
 10
-116.5142311915899
 20
-1607.25085359333
 10
-117.1640986437894
 20
-1608.132276764729
 10
-117.7660816572895
 20
-1609.02384302213
 10
-118.2695011749899
 20
-1609.90822165663
 10
-118.6236781400894
 20
-1610.76808195933
 10
-118.7039453920899
 20
-1611.06415216003
 10
-118.7798105933893
 20
-1612.198841804229
 10
-118.6149341447901
 20
-1613.48485119673
 10
-118.3097707904894
 20
-1614.76452463983
 10
-117.9647752748899
 20
-1615.88020643543
 10
-117.6804023421894
 20
-1616.674240885829
 10
-117.5571067364899
 20
-1616.98897229313
 10
-116.9893988456824
 20
-1618.789642174588
  0
LINE
  5
262C2
330
20
100
AcDbEntity
  8
gaikei
100
AcDbLine
 10
-160.3859389780893
 20
-1506.730093536129
 30
0.0
 11
-160.3859389780893
 21
-1637.42334734519
 31
0.0
  0
LINE
  5
262C4
330
20
100
AcDbEntity
  8
gaikei
100
AcDbLine
 10
-112.5187394681893
 20
-1600.61764198643
 30
0.0
 11
-160.3859389780893
 21
-1600.61764198643
 31
0.0
  0
LINE
  5
262C5
330
20
100
AcDbEntity
  8
gaikei
100
AcDbLine
 10
-160.3859389780893
 20
-1637.42334734519
 30
0.0
 11
-163.3859389780893
 21
-1642.61764198643
 31
0.0
  0
LINE
  5
262C8
330
20
100
AcDbEntity
  8
gaikei
100
AcDbLine
 10
-147.3859389780893
 20
-1600.61764198643
 30
0.0
 11
-147.3859389780893
 21
-1632.096268220027
 31
0.0
  0
LINE
  5
262C9
330
20
100
AcDbEntity
  8
gaikei
100
AcDbLine
 10
-108.2894035439065
 20
-1491.703428424129
 30
0.0
 11
-160.3111093588934
 21
-1491.703428424129
 31
0.0
  0
LINE
  5
262CA
330
20
100
AcDbEntity
  8
gaikei
100
AcDbLine
 10
-108.6207017290539
 20
-1494.53185554883
 30
0.0
 11
-160.3111093588934
 21
-1494.53185554883
 31
0.0
  0
LINE
  5
262CB
330
20
100
AcDbEntity
  8
gaikei
100
AcDbLine
 10
-111.8138188516584
 20
-1506.53185554883
 30
0.0
 11
-160.3111093588934
 21
-1506.53185554883
 31
0.0
  0
LINE
  5
262CC
330
20
100
AcDbEntity
  8
gaikei
100
AcDbLine
 10
-110.8136514701739
 20
-1503.703428424129
 30
0.0
 11
-160.3111093588934
 21
-1503.703428424129
 31
0.0
  0
LINE
  5
262CD
330
20
100
AcDbEntity
  8
gaikei
100
AcDbLine
 10
-110.4190241075093
 20
-1502.53185554883
 30
0.0
 11
-160.3111093588925
 21
-1502.53185554883
 31
0.0
  0
LINE
  5
262CE
330
20
100
AcDbEntity
  8
gaikei
100
AcDbLine
 10
-109.5511995395527
 20
-1499.703428424129
 30
0.0
 11
-160.3111093588925
 21
-1499.70342842413
 31
0.0
  0
LINE
  5
262CF
330
20
100
AcDbEntity
  8
gaikei
100
AcDbLine
 10
-109.1953691311853
 20
-1498.53185554883
 30
0.0
 11
-160.3111093588934
 21
-1498.53185554883
 31
0.0
  0
LINE
  5
262D0
330
20
100
AcDbEntity
  8
gaikei
100
AcDbLine
 10
-108.7639057342435
 20
-1495.703428424129
 30
0.0
 11
-160.3111093588934
 21
-1495.703428424129
 31
0.0
  0
LINE
  5
262D2
330
20
100
AcDbEntity
  8
gaikei
100
AcDbLine
 10
-163.8859389780894
 20
-1512.61764198643
 30
0.0
 11
-163.8859389780894
 21
-1629.454418052316
 31
0.0
  0
LINE
  5
262DB
330
20
100
AcDbEntity
  8
gaikei
100
AcDbLine
 10
-165.8859389780893
 20
-1486.617641986429
 30
0.0
 11
-160.3859389780893
 21
-1486.61764198643
 31
0.0
  0
ARC
  5
262DC
330
20
100
AcDbEntity
  8
gaikei
100
AcDbCircle
 10
-160.085938978089
 20
-1491.50519043683
 30
0.0
 40
0.3
100
AcDbArc
 50
180.0
 51
243.612200038703
  0
LINE
  5
262DD
330
20
100
AcDbEntity
  8
gaikei
100
AcDbLine
 10
-163.8859389780894
 20
-1492.61764198643
 30
0.0
 11
-164.8859389780887
 21
-1491.61764198643
 31
0.0
  0
LINE
  5
262DE
330
20
100
AcDbEntity
  8
gaikei
100
AcDbLine
 10
-160.3859389780893
 20
-1491.50519043683
 30
0.0
 11
-160.3859389780893
 21
-1486.61764198643
 31
0.0
  0
ARC
  5
262DF
330
20
100
AcDbEntity
  8
gaikei
100
AcDbCircle
 10
-160.8859389780894
 20
-1493.11764198643
 30
0.0
 40
1.5
100
AcDbArc
 50
296.3877999612965
 51
63.61220003870347
  0
ARC
  5
262E1
330
20
100
AcDbEntity
  8
gaikei
100
AcDbCircle
 10
-160.8859389780894
 20
-1497.11764198643
 30
0.0
 40
1.5
100
AcDbArc
 50
296.3877999612965
 51
63.61220003870347
  0
ARC
  5
262E6
330
20
100
AcDbEntity
  8
gaikei
100
AcDbCircle
 10
-160.085938978089
 20
-1498.730093536129
 30
0.0
 40
0.3
100
AcDbArc
 50
116.3877999612965
 51
180.0
  0
ARC
  5
262E7
330
20
100
AcDbEntity
  8
gaikei
100
AcDbCircle
 10
-160.085938978089
 20
-1499.50519043683
 30
0.0
 40
0.3
100
AcDbArc
 50
180.0
 51
243.612200038703
  0
LINE
  5
262E8
330
20
100
AcDbEntity
  8
gaikei
100
AcDbLine
 10
-160.3859389780893
 20
-1499.50519043683
 30
0.0
 11
-160.3859389780893
 21
-1498.730093536129
 31
0.0
  0
ARC
  5
262E9
330
20
100
AcDbEntity
  8
gaikei
100
AcDbCircle
 10
-160.8859389780894
 20
-1505.11764198643
 30
0.0
 40
1.5
100
AcDbArc
 50
296.3877999612965
 51
63.61220003870347
  0
ARC
  5
262EA
330
20
100
AcDbEntity
  8
gaikei
100
AcDbCircle
 10
-160.085938978089
 20
-1506.730093536129
 30
0.0
 40
0.3
100
AcDbArc
 50
116.3877999612965
 51
180.0
  0
ARC
  5
262EB
330
20
100
AcDbEntity
  8
gaikei
100
AcDbCircle
 10
-160.085938978089
 20
-1502.730093536129
 30
0.0
 40
0.3
100
AcDbArc
 50
116.3877999612965
 51
180.0
  0
ARC
  5
262EC
330
20
100
AcDbEntity
  8
gaikei
100
AcDbCircle
 10
-160.085938978089
 20
-1503.505190436829
 30
0.0
 40
0.3
100
AcDbArc
 50
180.0
 51
243.612200038703
  0
LINE
  5
262ED
330
20
100
AcDbEntity
  8
gaikei
100
AcDbLine
 10
-160.3859389780893
 20
-1503.505190436829
 30
0.0
 11
-160.3859389780893
 21
-1502.730093536129
 31
0.0
  0
LINE
  5
262EE
330
20
100
AcDbEntity
  8
gaikei
100
AcDbLine
 10
-164.8859389780887
 20
-1506.61764198643
 30
0.0
 11
-163.8859389780894
 21
-1505.61764198643
 31
0.0
  0
LINE
  5
262EF
330
20
100
AcDbEntity
  8
gaikei
100
AcDbLine
 10
-164.8859389780887
 20
-1511.61764198643
 30
0.0
 11
-164.8859389780887
 21
-1506.61764198643
 31
0.0
  0
LINE
  5
262F0
330
20
100
AcDbEntity
  8
gaikei
100
AcDbLine
 10
-164.8859389780887
 20
-1511.61764198643
 30
0.0
 11
-163.8859389780894
 21
-1512.61764198643
 31
0.0
  0
ARC
  5
262F1
330
20
100
AcDbEntity
  8
gaikei
100
AcDbCircle
 10
-160.8859389780894
 20
-1501.11764198643
 30
0.0
 40
1.5
100
AcDbArc
 50
296.3877999612965
 51
63.61220003870347
  0
ARC
  5
262F2
330
20
100
AcDbEntity
  8
gaikei
100
AcDbCircle
 10
-160.085938978089
 20
-1495.505190436829
 30
0.0
 40
0.3
100
AcDbArc
 50
180.0
 51
243.612200038703
  0
LINE
  5
262F3
330
20
100
AcDbEntity
  8
gaikei
100
AcDbLine
 10
-160.3859389780893
 20
-1495.505190436829
 30
0.0
 11
-160.3859389780893
 21
-1494.730093536129
 31
0.0
  0
LINE
  5
262F4
330
20
100
AcDbEntity
  8
gaikei
100
AcDbLine
 10
-163.8859389780894
 20
-1505.61764198643
 30
0.0
 11
-163.8859389780894
 21
-1492.61764198643
 31
0.0
  0
ARC
  5
262F5
330
20
100
AcDbEntity
  8
gaikei
100
AcDbCircle
 10
-160.085938978089
 20
-1494.730093536129
 30
0.0
 40
0.3
100
AcDbArc
 50
116.3877999612965
 51
180.0
  0
LINE
  5
262F9
330
20
100
AcDbEntity
  8
hasen
100
AcDbLine
 10
6.614061021911083
 20
-1600.61764198643
 30
0.0
 11
6.614061021910629
 21
-1632.096268220027
 31
0.0
  0
TEXT
  5
262FD
330
20
100
AcDbEntity
  8
sunpo
100
AcDbText
 10
-96.03741338188363
 20
-1379.912529946263
 30
0.0
 40
7.992399999999999
  1
HC,PRP－150
 41
0.820318851781394
  7
MDRAFSTD
 72
     5
 11
-37.90474138188211
 21
-1379.912529946263
 31
0.0
100
AcDbText
  0
DIMENSION
  5
263ED
330
20
100
AcDbEntity
  8
sunpo
100
AcDbDimension
  2
*D52
 10
95.91219935167259
 20
-1611.617641986429
 30
0.0
 11
90.91219935167286
 21
-1549.117641986429
 31
0.0
 70
    32
 71
     5
 42
124.9999999999993
  3
STANDARD
100
AcDbAlignedDimension
 13
25.11406102191108
 23
-1486.61764198643
 33
0.0
 14
-70.38593897808869
 24
-1611.617641986429
 34
0.0
 50
90.0
100
AcDbRotatedDimension
  0
LINE
  5
263EE
330
20
100
AcDbEntity
  8
gaikei
100
AcDbLine
 10
54.11406102191063
 20
-1587.552826472135
 30
0.0
 11
54.11406102191063
 21
-1640.091511602751
 31
0.0
  0
LINE
  5
263EF
330
20
100
AcDbEntity
  8
hasen
100
AcDbLine
 10
48.61406102190926
 20
-1583.588742666113
 30
0.0
 11
48.61406102191107
 21
-1641.988191213348
 31
0.0
  0
LINE
  5
263F0
330
20
100
AcDbEntity
  8
hasen
100
AcDbLine
 10
19.61406102191108
 20
-1506.730093536129
 30
0.0
 11
19.61406102191063
 21
-1637.423347345189
 31
0.0
  0
ARC
  5
263F3
330
20
100
AcDbEntity
  8
hasen
100
AcDbCircle
 10
44.86406102191107
 20
-1641.988191213348
 30
0.0
 40
3.750000000000015
100
AcDbArc
 50
227.2391635496512
 51
0.0
  0
LINE
  5
263F4
330
20
100
AcDbEntity
  8
hasen
100
AcDbLine
 10
19.61406102191108
 20
-1637.42334734519
 30
0.0
 11
22.61406102191108
 21
-1642.61764198643
 31
0.0
  0
LINE
  5
263F5
330
20
100
AcDbEntity
  8
hasen
100
AcDbLine
 10
54.11406102191063
 20
-1640.091511602751
 30
0.0
 11
54.11406102191063
 21
-1641.583984003541
 31
0.0
  0
LINE
  5
263F6
330
20
100
AcDbEntity
  8
hasen
100
AcDbLine
 10
55.81406102190999
 20
-1641.583984003541
 30
0.0
 11
54.11406102191063
 21
-1641.583984003541
 31
0.0
  0
LINE
  5
263F7
330
20
100
AcDbEntity
  8
gaikei
100
AcDbLine
 10
55.81406102190999
 20
-1641.583984003541
 30
0.0
 11
55.81406102190999
 21
-1676.625642342016
 31
0.0
  0
LINE
  5
263F8
330
20
100
AcDbEntity
  8
gaikei
100
AcDbLine
 10
23.11406102191108
 20
-1512.61764198643
 30
0.0
 11
23.11406102191108
 21
-1563.013019107739
 31
0.0
  0
ARC
  5
263F9
330
20
100
AcDbEntity
  8
gaikei
100
AcDbCircle
 10
103.6037996305247
 20
-1554.835617031409
 30
0.0
 40
80.49719555379715
100
AcDbArc
 50
180.7798859260941
 51
185.9797266242006
  0
LINE
  5
263FA
330
20
100
AcDbEntity
  8
hasen
100
AcDbLine
 10
52.20816562773939
 20
-1579.994638060284
 30
0.0
 11
48.61406102190926
 21
-1583.588742666113
 31
0.0
  0
LINE
  5
263FB
330
20
100
AcDbEntity
  8
gaikei
100
AcDbLine
 10
54.11406102191063
 20
-1587.552826472135
 30
0.0
 11
55.81406102181176
 21
-1587.552826472135
 31
0.0
  0
LINE
  5
263FC
330
20
100
AcDbEntity
  8
gaikei
100
AcDbLine
 10
55.81406102181176
 20
-1587.552826472135
 30
0.0
 11
55.81406102180995
 21
-1582.552826472135
 31
0.0
  0
ARC
  5
263FD
330
20
100
AcDbEntity
  8
hasen
100
AcDbCircle
 10
19.31406102190999
 20
-1491.50519043683
 30
0.0
 40
0.3
100
AcDbArc
 50
296.3877999612965
 51
0.0
  0
LINE
  5
263FE
330
20
100
AcDbEntity
  8
gaikei
100
AcDbLine
 10
23.11406102191108
 20
-1492.61764198643
 30
0.0
 11
24.11406102191108
 21
-1491.61764198643
 31
0.0
  0
LINE
  5
263FF
330
20
100
AcDbEntity
  8
hasen
100
AcDbLine
 10
19.61406102191108
 20
-1491.50519043683
 30
0.0
 11
19.61406102191108
 21
-1486.61764198643
 31
0.0
  0
LINE
  5
26400
330
20
100
AcDbEntity
  8
hasen
100
AcDbLine
 10
19.61406102191108
 20
-1499.50519043683
 30
0.0
 11
19.61406102191108
 21
-1498.730093536129
 31
0.0
  0
ARC
  5
26401
330
20
100
AcDbEntity
  8
hasen
100
AcDbCircle
 10
19.31406102190999
 20
-1499.50519043683
 30
0.0
 40
0.3
100
AcDbArc
 50
296.3877999612965
 51
0.0
  0
ARC
  5
26402
330
20
100
AcDbEntity
  8
hasen
100
AcDbCircle
 10
19.31406102190999
 20
-1498.730093536129
 30
0.0
 40
0.3
100
AcDbArc
 50
0.0
 51
63.61220003870347
  0
LINE
  5
26403
330
20
100
AcDbEntity
  8
hasen
100
AcDbLine
 10
19.61406102191108
 20
-1503.505190436829
 30
0.0
 11
19.61406102191108
 21
-1502.730093536129
 31
0.0
  0
ARC
  5
26404
330
20
100
AcDbEntity
  8
hasen
100
AcDbCircle
 10
19.31406102190999
 20
-1503.505190436829
 30
0.0
 40
0.3
100
AcDbArc
 50
296.3877999612965
 51
0.0
  0
ARC
  5
26405
330
20
100
AcDbEntity
  8
hasen
100
AcDbCircle
 10
19.31406102190999
 20
-1506.730093536129
 30
0.0
 40
0.3
100
AcDbArc
 50
0.0
 51
63.61220003870347
  0
LINE
  5
26406
330
20
100
AcDbEntity
  8
gaikei
100
AcDbLine
 10
24.11406102191108
 20
-1511.61764198643
 30
0.0
 11
24.11406102191108
 21
-1506.61764198643
 31
0.0
  0
LINE
  5
26407
330
20
100
AcDbEntity
  8
gaikei
100
AcDbLine
 10
24.11406102191108
 20
-1511.61764198643
 30
0.0
 11
22.61406102191108
 21
-1513.11764198643
 31
0.0
  0
LINE
  5
26408
330
20
100
AcDbEntity
  8
gaikei
100
AcDbLine
 10
24.11406102191108
 20
-1506.61764198643
 30
0.0
 11
23.11406102191108
 21
-1505.61764198643
 31
0.0
  0
ARC
  5
26409
330
20
100
AcDbEntity
  8
hasen
100
AcDbCircle
 10
19.31406102190999
 20
-1502.730093536129
 30
0.0
 40
0.3
100
AcDbArc
 50
0.0
 51
63.61220003870347
  0
LINE
  5
2640A
330
20
100
AcDbEntity
  8
hasen
100
AcDbLine
 10
19.61406102191108
 20
-1495.505190436829
 30
0.0
 11
19.61406102191108
 21
-1494.730093536129
 31
0.0
  0
ARC
  5
2640B
330
20
100
AcDbEntity
  8
hasen
100
AcDbCircle
 10
19.31406102190999
 20
-1495.505190436829
 30
0.0
 40
0.3
100
AcDbArc
 50
296.3877999612965
 51
0.0
  0
LINE
  5
2640C
330
20
100
AcDbEntity
  8
gaikei
100
AcDbLine
 10
23.11406102191108
 20
-1505.61764198643
 30
0.0
 11
23.11406102191108
 21
-1492.61764198643
 31
0.0
  0
ARC
  5
2640D
330
20
100
AcDbEntity
  8
hasen
100
AcDbCircle
 10
19.31406102190999
 20
-1494.730093536129
 30
0.0
 40
0.3
100
AcDbArc
 50
0.0
 51
63.61220003870347
  0
CIRCLE
  5
2641A
330
20
100
AcDbEntity
  8
hasen
100
AcDbCircle
 10
-70.38593897808869
 20
-1819.508496451963
 30
0.0
 40
93.57066187647268
  0
ARC
  5
2641B
330
20
100
AcDbEntity
  8
hasen
100
AcDbCircle
 10
-70.38593897808869
 20
-1819.508496451963
 30
0.0
 40
111.5000000000004
100
AcDbArc
 50
212.6909318536239
 51
327.3090681463596
  0
LINE
  5
2641C
330
20
100
AcDbEntity
  8
hasen
100
AcDbLine
 10
-151.4205092120385
 20
-1866.293827390199
 30
0.0
 11
-162.5159422343579
 21
-1872.699778632411
 31
0.0
  0
LINE
  5
2641D
330
20
100
AcDbEntity
  8
hasen
100
AcDbLine
 10
10.64863125585975
 20
-1866.293827390201
 30
0.0
 11
21.74406427817871
 21
-1872.699778632412
 31
0.0
  0
CIRCLE
  5
2641E
330
20
100
AcDbEntity
  8
hasen
100
AcDbCircle
 10
-70.38593897808869
 20
-1819.508496451964
 30
0.0
 40
95.00000000000021
  0
CIRCLE
  5
2641F
330
20
100
AcDbEntity
  8
hasen
100
AcDbCircle
 10
-70.38593897808869
 20
-1819.508496451963
 30
0.0
 40
118.9999999999995
  0
CIRCLE
  5
26420
330
20
100
AcDbEntity
  8
hasen
100
AcDbCircle
 10
-70.38593897808869
 20
-1819.508496451963
 30
0.0
 40
124.4999999999995
  0
LINE
  5
26423
330
20
100
AcDbEntity
  8
kijun
100
AcDbLine
 10
-70.38593897808869
 20
-1819.508496451963
 30
0.0
 11
-109.3170675591973
 21
-1841.985394018122
 31
0.0
  0
LINE
  5
26424
330
20
100
AcDbEntity
  8
kijun
100
AcDbLine
 10
-70.38593897808869
 20
-1819.508496451963
 30
0.0
 11
-31.45481039698143
 21
-1841.985394018122
 31
0.0
  0
LINE
  5
26425
330
20
100
AcDbEntity
  8
hasen
100
AcDbLine
 10
23.11406102191063
 20
-1563.013019107739
 30
0.0
 11
23.11406102191108
 21
-1629.454418052316
 31
0.0
  0
LINE
  5
26426
330
20
100
AcDbEntity
  8
hasen
100
AcDbLine
 10
26.17589354387269
 20
-1631.592412862386
 30
0.0
 11
26.1758935438736
 21
-1576.851925783399
 31
0.0
  0
ARC
  5
26427
330
20
100
AcDbEntity
  8
hasen
100
AcDbCircle
 10
103.6037996305247
 20
-1554.835617031409
 30
0.0
 40
80.49719555379715
100
AcDbArc
 50
185.9797266242006
 51
195.8728849506197
  0
LINE
  5
26428
330
20
100
AcDbEntity
  8
gaikei
100
AcDbLine
 10
-166.9477715000507
 20
-1631.592412862386
 30
0.0
 11
-166.9477715000512
 21
-1576.851925783399
 31
0.0
  0
ARC
  5
26429
330
20
100
AcDbEntity
  8
gaikei
100
AcDbCircle
 10
-244.3756775867025
 20
-1554.835617031409
 30
0.0
 40
80.49719555379715
100
AcDbArc
 50
344.1271150493802
 51
354.0202733757993
  0
ARC
  5
2642B
330
20
100
AcDbEntity
  8
gaikei
100
AcDbCircle
 10
-70.38593897808869
 20
-1756.617641986429
 30
0.0
 40
210.0
100
AcDbArc
 50
116.8321967312431
 51
124.5181078410565
  0
ARC
  5
2642C
330
20
100
AcDbEntity
  8
gaikei
100
AcDbCircle
 10
-244.3756775867025
 20
-1554.835617031409
 30
0.0
 40
80.49719555379715
100
AcDbArc
 50
354.0202733757993
 51
359.2201140739058
  0
ARC
  5
2642D
330
20
100
AcDbEntity
  8
gaikei
100
AcDbCircle
 10
-70.38593897808869
 20
-1766.617641986429
 30
0.0
 40
166.0
100
AcDbArc
 50
124.2810650879443
 51
132.7608364503488
  0
LINE
  5
2644A
330
20
100
AcDbEntity
  8
gaikei
100
AcDbLine
 10
25.11406102191108
 20
-1491.61764198643
 30
0.0
 11
25.11406102191108
 21
-1486.61764198643
 31
0.0
  0
LINE
  5
2644B
330
20
100
AcDbEntity
  8
gaikei
100
AcDbLine
 10
-165.8859389780893
 20
-1491.61764198643
 30
0.0
 11
-165.8859389780893
 21
-1486.61764198643
 31
0.0
  0
LINE
  5
2644C
330
20
100
AcDbEntity
  8
gaikei
100
AcDbLine
 10
-164.8859389780887
 20
-1491.61764198643
 30
0.0
 11
-165.8859389780893
 21
-1491.61764198643
 31
0.0
  0
ARC
  5
26451
330
20
100
AcDbEntity
  8
hasen
100
AcDbCircle
 10
19.24406427817871
 20
-1877.029905651333
 30
0.0
 40
5.0
100
AcDbArc
 50
327.3090681463596
 51
59.99999999999905
  0
ARC
  5
26452
330
20
100
AcDbEntity
  8
hasen
100
AcDbCircle
 10
-160.0159422343579
 20
-1877.029905651333
 30
0.0
 40
5.0
100
AcDbArc
 50
120.0000000000009
 51
212.6909318536239
  0
TEXT
  5
278F8
330
20
100
AcDbEntity
  8
sunpo
100
AcDbText
 10
-1085.642762632403
 20
-1379.912529946263
 30
0.0
 40
7.992399999999999
  1
ＶＵ－１５０Ｋ
 41
1.061239177218357
  7
MDRAFSTD
 72
     5
 11
-1017.787978632403
 21
-1379.912529946263
 31
0.0
100
AcDbText
  0
TEXT
  5
27C3A
330
20
100
AcDbEntity
  8
sunpo
100
AcDbText
 10
412.7172879048148
 20
-1379.912529946263
 30
0.0
 40
7.992399999999999
  1
ＨＣ－２００Ｋ
 41
1.061239177218358
  7
MDRAFSTD
 72
     5
 11
480.5720719048149
 21
-1379.912529946263
 31
0.0
100
AcDbText
  0
DIMENSION
  5
28ED3
330
20
100
AcDbEntity
  8
sunpo
100
AcDbDimension
  2
*D62
 10
-947.8808170505347
 20
-1677.307114209513
 30
0.0
 11
-1051.080817050506
 21
-1674.127114209513
 31
0.0
 70
    32
 71
     5
 42
206.3999999999424
  3
STANDARD
100
AcDbAlignedDimension
 13
-1154.280817050477
 23
-1657.507981206014
 33
0.0
 14
-947.8808170505347
 24
-1657.507981205967
 34
0.0
100
AcDbRotatedDimension
1001
ACAD
1000
DSTYLE
1002
{
1070
     3
1000
\U+03C6<>
1070
   147
1040
0.09
1002
}
  0
DIMENSION
  5
28EE0
330
20
100
AcDbEntity
  8
sunpo
100
AcDbDimension
  2
*D63
 10
-1358.056710147701
 20
-1665.925732530872
 30
0.0
 11
-1435.7567101477
 21
-1662.745732530872
 31
0.0
 70
    32
 71
     5
 42
155.3999999999992
  3
STANDARD
100
AcDbAlignedDimension
 13
-1513.4567101477
 23
-1640.81588221345
 33
0.0
 14
-1358.056710147701
 24
-1640.815882213459
 34
0.0
100
AcDbRotatedDimension
1001
ACAD
1000
DSTYLE
1002
{
1070
     3
1000
\U+03C6<>
1070
   147
1040
0.09
1002
}
  0
DIMENSION
  5
28EED
330
20
100
AcDbEntity
  8
sunpo
100
AcDbDimension
  2
*D64
 10
-1378.2567101477
 20
-1480.305954501893
 30
0.0
 11
-1435.7567101477
 21
-1477.125954501892
 31
0.0
 70
    32
 71
     5
 42
115.0
  3
STANDARD
100
AcDbAlignedDimension
 13
-1493.2567101477
 23
-1512.777192375466
 33
0.0
 14
-1378.2567101477
 24
-1512.777192375466
 34
0.0
100
AcDbRotatedDimension
1001
ACAD
1000
DSTYLE
1002
{
1070
     3
1000
\U+03C6<>
1070
   147
1040
0.09
1002
}
  0
DIMENSION
  5
28EFA
330
20
100
AcDbEntity
  8
sunpo
100
AcDbDimension
  2
*D65
 10
-968.080817050478
 20
-1469.555935378075
 30
0.0
 11
-1051.080817050478
 21
-1466.375935378075
 31
0.0
 70
    32
 71
     5
 42
166.0000000000001
  3
STANDARD
100
AcDbAlignedDimension
 13
-1134.080817050478
 23
-1507.777192375467
 33
0.0
 14
-968.080817050478
 24
-1507.777192375467
 34
0.0
100
AcDbRotatedDimension
1001
ACAD
1000
DSTYLE
1002
{
1070
     3
1000
\U+03C6<>
1070
   147
1040
0.09
1002
}
  0
DIMENSION
  5
28F8E
330
20
100
AcDbEntity
  8
sunpo
100
AcDbDimension
  2
*D66
 10
-460.1498297909363
 20
-1445.779619851999
 30
0.0
 11
-586.3498297908376
 21
-1442.599619851999
 31
0.0
 70
    32
 71
     5
 42
252.3999999998026
  3
STANDARD
100
AcDbAlignedDimension
 13
-712.5498297907388
 23
-1568.068764085667
 33
0.0
 14
-460.1498297909363
 24
-1568.068764085721
 34
0.0
100
AcDbRotatedDimension
1001
ACAD
1000
DSTYLE
1002
{
1070
     3
1000
\U+03C6<>
1070
   147
1040
0.09
1002
}
  0
DIMENSION
  5
28F9B
330
20
100
AcDbEntity
  8
sunpo
100
AcDbDimension
  2
*D67
 10
-477.8498297904388
 20
-1463.429478241051
 30
0.0
 11
-586.3498297904388
 21
-1460.249478241051
 31
0.0
 70
    32
 71
     5
 42
216.9999999999998
  3
STANDARD
100
AcDbAlignedDimension
 13
-694.8498297904386
 23
-1483.492467057867
 33
0.0
 14
-477.8498297904388
 24
-1483.492467057867
 34
0.0
100
AcDbRotatedDimension
1001
ACAD
1000
DSTYLE
1002
{
1070
     3
1000
\U+03C6<>
1070
   147
1040
0.09
1002
}
  0
DIMENSION
  5
28FA8
330
20
100
AcDbEntity
  8
sunpo
100
AcDbDimension
  2
*D68
 10
-460.1498297904388
 20
-1661.986195351927
 30
0.0
 11
-586.3498297904389
 21
-1658.806195351927
 31
0.0
 70
    32
 71
     5
 42
252.4
  3
STANDARD
100
AcDbAlignedDimension
 13
-712.5498297904388
 23
-1657.138209397103
 33
0.0
 14
-460.1498297904388
 24
-1657.170005005567
 34
0.0
100
AcDbRotatedDimension
1001
ACAD
1000
DSTYLE
1002
{
1070
     3
1000
\U+03C6<>
1070
   147
1040
0.09
1002
}
  0
DIMENSION
  5
28FB5
330
20
100
AcDbEntity
  8
sunpo
100
AcDbDimension
  2
*D69
 10
55.81406102190999
 20
-1682.266939234993
 30
0.0
 11
-70.38593897808934
 21
-1679.086939234993
 31
0.0
 70
    32
 71
     5
 42
252.3999999999987
  3
STANDARD
100
AcDbAlignedDimension
 13
-196.5859389780887
 23
-1676.625642342016
 33
0.0
 14
55.81406102190999
 24
-1676.625642342016
 34
0.0
100
AcDbRotatedDimension
1001
ACAD
1000
DSTYLE
1002
{
1070
     3
1000
\U+03C6<>
1070
   147
1040
0.09
1002
}
  0
DIMENSION
  5
28FC2
330
20
100
AcDbEntity
  8
sunpo
100
AcDbDimension
  2
*D70
 10
555.9570926765551
 20
-1457.115645296159
 30
0.0
 11
436.4570926765551
 21
-1453.935645296159
 31
0.0
 70
    32
 71
     5
 42
239.0
  3
STANDARD
100
AcDbAlignedDimension
 13
316.9570926765552
 23
-1477.021452808454
 33
0.0
 14
555.9570926765551
 24
-1477.021452808454
 34
0.0
100
AcDbRotatedDimension
1001
ACAD
1000
DSTYLE
1002
{
1070
     3
1000
\U+03C6<>
1070
   147
1040
0.09
1002
}
  0
DIMENSION
  5
28FCF
330
20
100
AcDbEntity
  8
sunpo
100
AcDbDimension
  2
*D71
 10
610.0739211450036
 20
-1589.021452681254
 30
0.0
 11
605.0739211450038
 21
-1533.021452744853
 31
0.0
 70
    32
 71
     5
 42
111.9999998728003
  3
STANDARD
100
AcDbAlignedDimension
 13
560.9570926765551
 23
-1477.021452808454
 33
0.0
 14
436.4570926765551
 24
-1589.021452681254
 34
0.0
 50
90.0
100
AcDbRotatedDimension
  0
DIMENSION
  5
28FE5
330
20
100
AcDbEntity
  8
sunpo
100
AcDbDimension
  2
*D72
 10
574.157092676663
 20
-1440.822726661058
 30
0.0
 11
436.4570926765551
 21
-1437.642726661058
 31
0.0
 70
    32
 71
     5
 42
275.4000000002159
  3
STANDARD
100
AcDbAlignedDimension
 13
298.7570926764472
 23
-1570.163968029966
 33
0.0
 14
574.157092676663
 24
-1570.163968029966
 34
0.0
100
AcDbRotatedDimension
1001
ACAD
1000
DSTYLE
1002
{
1070
     3
1000
\U+03C6<>
1070
   147
1040
0.09
1002
}
  0
DIMENSION
  5
29004
330
20
100
AcDbEntity
  8
sunpo
100
AcDbDimension
  2
*D73
 10
55.81406102180995
 20
-1441.810036082595
 30
0.0
 11
-70.38593897808931
 21
-1438.630036082594
 31
0.0
 70
    32
 71
     5
 42
252.3999999997985
  3
STANDARD
100
AcDbAlignedDimension
 13
-196.5859389779885
 23
-1582.552826472135
 33
0.0
 14
55.81406102180995
 24
-1582.552826472043
 34
0.0
100
AcDbRotatedDimension
1001
ACAD
1000
DSTYLE
1002
{
1070
     3
1000
\U+03C6<>
1070
   147
1040
0.09
1002
}
  0
DIMENSION
  5
29011
330
20
100
AcDbEntity
  8
sunpo
100
AcDbDimension
  2
*D74
 10
19.61406102191108
 20
-1458.808169336105
 30
0.0
 11
-70.38593897808912
 21
-1455.628169336105
 31
0.0
 70
    32
 71
     5
 42
180.0000000000004
  3
STANDARD
100
AcDbAlignedDimension
 13
-160.3859389780893
 23
-1486.617641986429
 33
0.0
 14
19.61406102191108
 24
-1486.61764198643
 34
0.0
100
AcDbRotatedDimension
1001
ACAD
1000
DSTYLE
1002
{
1070
     3
1000
\U+03C6<>
1070
   147
1040
0.09
1002
}
  0
DIMENSION
  5
2906F
330
20
100
AcDbEntity
  8
sunpo
100
AcDbDimension
  2
*D75
 10
280.6391907102161
 20
-1838.69263733025
 30
0.0
 11
272.6391907102164
 21
-1843.69263733025
 31
0.0
 70
    32
 71
     5
 42
10.00000000000091
  3
STANDARD
100
AcDbAlignedDimension
 13
314.3659382057553
 23
-1848.692637330251
 33
0.0
 14
298.7570926765551
 24
-1838.69263733025
 34
0.0
 50
90.0
100
AcDbRotatedDimension
  0
ENDSEC
  0
SECTION
  2
OBJECTS
  0
DICTIONARY
  5
C
330
0
100
AcDbDictionary
281
     1
  3
ACAD_COLOR
350
1B
  3
ACAD_GROUP
350
D
  3
ACAD_LAYOUT
350
19
  3
ACAD_MATERIAL
350
1A
  3
ACAD_MLEADERSTYLE
350
24D3A
  3
ACAD_MLINESTYLE
350
16
  3
ACAD_PLOTSETTINGS
350
18
  3
ACAD_PLOTSTYLENAME
350
E
  3
ACAD_SCALELIST
350
24D28
  3
ACAD_TABLESTYLE
350
7C3
  3
ACAD_VISUALSTYLE
350
24D0F
  3
AcadDim
350
1664
  3
ACDB_RECOMPOSE_DATA
350
2909C
  3
AcDbVariableDictionary
350
7CA
  3
AEC_PROPERTY_SET_DEFS
350
2531D
  3
ASE_INDEX_DICTIONARY
350
20CE4
  0
DICTIONARY
  5
CE3
330
2
100
AcDbDictionary
280
     1
281
     1
  3
ACAD_LAYERFILTERS
360
1A508
  3
ACAD_LAYERSTATES
360
10797
  3
ACLYDICTIONARY
360
1A507
  0
DICTIONARY
  5
29093
330
10
100
AcDbDictionary
280
     1
281
     1
  3
ADSK_XREC_LAYER_RECONCILED
360
29094
  0
DICTIONARY
  5
29095
330
8B2
100
AcDbDictionary
280
     1
281
     1
  3
ADSK_XREC_LAYER_RECONCILED
360
29096
  0
DICTIONARY
  5
28542
330
28541
100
AcDbDictionary
280
     1
281
     1
  3
ADSK_XREC_LAYER_RECONCILED
360
29097
  0
DICTIONARY
  5
28544
330
28543
100
AcDbDictionary
280
     1
281
     1
  3
ADSK_XREC_LAYER_RECONCILED
360
29098
  0
DICTIONARY
  5
28546
330
28545
100
AcDbDictionary
280
     1
281
     1
  3
ADSK_XREC_LAYER_RECONCILED
360
29099
  0
DICTIONARY
  5
97B
330
20
100
AcDbDictionary
280
     1
281
     1
  3
ACAD_SORTENTS
360
97C
  0
DICTIONARY
  5
1B
102
{ACAD_REACTORS
330
C
102
}
330
C
100
AcDbDictionary
281
     1
  0
DICTIONARY
  5
D
102
{ACAD_REACTORS
330
C
102
}
330
C
100
AcDbDictionary
281
     1
  0
DICTIONARY
  5
19
102
{ACAD_REACTORS
330
C
102
}
330
C
100
AcDbDictionary
281
     1
  3
Model
350
23
  3
レイアウト1
350
1F
  0
DICTIONARY
  5
1A
102
{ACAD_REACTORS
330
C
102
}
330
C
100
AcDbDictionary
281
     1
  3
ByBlock
350
24CFF
  3
ByLayer
350
24CF7
  3
Global
350
24D07
  0
DICTIONARY
  5
24D3A
102
{ACAD_REACTORS
330
C
102
}
330
C
100
AcDbDictionary
281
     1
  3
Standard
350
24D3B
  0
DICTIONARY
  5
16
102
{ACAD_REACTORS
330
C
102
}
330
C
100
AcDbDictionary
281
     1
  3
Standard
350
17
  0
DICTIONARY
  5
18
102
{ACAD_REACTORS
330
C
102
}
330
C
100
AcDbDictionary
281
     1
  0
ACDBDICTIONARYWDFLT
  5
E
102
{ACAD_REACTORS
330
C
102
}
330
C
100
AcDbDictionary
281
     1
  3
Normal
350
F
100
AcDbDictionaryWithDefault
340
F
  0
DICTIONARY
  5
24D28
102
{ACAD_REACTORS
330
C
102
}
330
C
100
AcDbDictionary
281
     1
  3
A0
350
24D29
  3
A1
350
24D2A
  3
A2
350
24D2B
  3
A3
350
24D2C
  3
A4
350
24D2D
  3
A5
350
24D2E
  3
A6
350
24D2F
  3
A7
350
24D30
  3
A8
350
24D31
  3
A9
350
24D32
  3
B0
350
24D33
  3
B1
350
24D34
  3
B2
350
24D35
  3
B3
350
24D36
  3
B4
350
24D37
  3
B5
350
24D38
  3
B6
350
24D39
  0
DICTIONARY
  5
7C3
102
{ACAD_REACTORS
330
C
102
}
330
C
100
AcDbDictionary
281
     1
  3
Standard
350
7C4
  0
DICTIONARY
  5
24D0F
102
{ACAD_REACTORS
330
C
102
}
330
C
100
AcDbDictionary
281
     1
  3
2dWireframe
350
24D15
  3
Basic
350
24D14
  3
Brighten
350
24D1B
  3
ColorChange
350
24D1F
  3
Conceptual
350
24D18
  3
Dim
350
24D1A
  3
EdgeColorOff
350
24D27
  3
Facepattern
350
24D1E
  3
Flat
350
24D10
  3
FlatWithEdges
350
24D11
  3
Gouraud
350
24D12
  3
GouraudWithEdges
350
24D13
  3
Hidden
350
24D17
  3
JitterOff
350
24D25
  3
Linepattern
350
24D1D
  3
OverhangOff
350
24D26
  3
Realistic
350
24D19
  3
Shaded
350
24D24
  3
Shaded with edges
350
24D23
  3
Shades of Gray
350
24D20
  3
Sketchy
350
24D21
  3
Thicken
350
24D1C
  3
Wireframe
350
24D16
  3
X-Ray
350
24D22
  0
XRECORD
  5
1664
102
{ACAD_REACTORS
330
C
102
}
330
C
100
AcDbXrecord
280
     1
 90
   990106
  3

 60
     0
 61
     0
 62
     4
 63
     4
 64
     1
 65
     0
 66
     0
 67
     3
 68
     1
 69
     0
 70
     0
 71
     0
 72
     0
 40
0.0
170
     2
340
24B57
  0
XRECORD
  5
2909C
102
{ACAD_REACTORS
330
C
102
}
330
C
100
AcDbXrecord
280
     1
 90
        1
330
7C4
  0
DICTIONARY
  5
7CA
102
{ACAD_REACTORS
330
C
102
}
330
C
100
AcDbDictionary
281
     1
  3
CANNOSCALE
350
286D3
  3
CMLEADERSTYLE
350
286D2
  3
CTABLESTYLE
350
7CB
  3
DIMASSOC
350
24CE5
  3
PROJECTNAME
350
24CE6
  3
XCLIPFRAME
350
2909A
  0
DICTIONARY
  5
2531D
102
{ACAD_REACTORS
330
C
102
}
330
C
100
AcDbDictionary
281
     1
  0
DICTIONARY
  5
20CE4
102
{ACAD_REACTORS
330
C
102
}
330
C
100
AcDbDictionary
281
     1
  3
ASEBlockHierarchyIndexRecord
350
20CE5
1001
DCO15
1040
1699182078.117
  0
DICTIONARY
  5
1A508
102
{ACAD_REACTORS
330
CE3
102
}
330
CE3
100
AcDbDictionary
281
     1
  0
DICTIONARY
  5
10797
102
{ACAD_REACTORS
330
CE3
102
}
330
CE3
100
AcDbDictionary
281
     1
  0
DICTIONARY
  5
1A507
102
{ACAD_REACTORS
330
CE3
102
}
330
CE3
100
AcDbDictionary
281
     1
1001
ACAD
1000
<All
  0
XRECORD
  5
29094
102
{ACAD_REACTORS
330
29093
102
}
330
29093
100
AcDbXrecord
280
     1
290
     1
  0
XRECORD
  5
29096
102
{ACAD_REACTORS
330
29095
102
}
330
29095
100
AcDbXrecord
280
     1
290
     1
  0
XRECORD
  5
29097
102
{ACAD_REACTORS
330
28542
102
}
330
28542
100
AcDbXrecord
280
     1
290
     1
  0
XRECORD
  5
29098
102
{ACAD_REACTORS
330
28544
102
}
330
28544
100
AcDbXrecord
280
     1
290
     1
  0
XRECORD
  5
29099
102
{ACAD_REACTORS
330
28546
102
}
330
28546
100
AcDbXrecord
280
     1
290
     1
  0
SORTENTSTABLE
  5
97C
102
{ACAD_REACTORS
330
97B
102
}
330
97B
100
AcDbSortentsTable
330
20
331
2476
  5
2476
331
250D
  5
250D
331
242F
  5
242F
331
602C
  5
602C
331
247E
  5
247E
331
243F
  5
243F
331
6034
  5
6034
331
2447
  5
2447
331
603C
  5
603C
331
6044
  5
6044
331
244F
  5
244F
331
24EE
  5
24EE
331
6143
  5
6148
331
2343B
  5
2347C
331
6082
  5
6087
331
2432
  5
2432
331
2483
  5
2483
331
23474
  5
234C5
331
234C3
  5
24B49
331
23435
  5
23476
331
2347C
  5
234CD
331
234B3
  5
24B39
331
23445
  5
23486
331
23484
  5
24B1A
331
2348C
  5
24B22
331
24AFB
  5
6064
331
2344D
  5
2348E
331
2457
  5
2457
331
604C
  5
604C
331
24FE
  5
24FE
331
6015
  5
6015
331
245F
  5
245F
331
6064
  5
6066
331
2467
  5
2467
331
2506
  5
2506
331
601D
  5
601D
331
6025
  5
6025
331
246F
  5
246F
331
6092
  5
609E
331
606B
  5
606E
331
23494
  5
24B2A
331
23455
  5
23496
331
2345D
  5
234AC
331
23465
  5
234B6
331
2346D
  5
234BE
331
602D
  5
602D
331
2438
  5
2438
331
2477
  5
2477
331
6035
  5
6035
331
2440
  5
2440
331
247F
  5
247F
331
2448
  5
2448
331
603D
  5
603D
331
6144
  5
6149
331
24EF
  5
24EF
331
6045
  5
6045
331
607B
  5
6080
331
2343C
  5
2347D
331
2433
  5
2433
331
234AC
  5
24B32
331
23475
  5
234C6
331
2347D
  5
234CE
331
234B4
  5
24B3A
331
23436
  5
23477
331
23446
  5
23487
331
23485
  5
24B1B
331
2344E
  5
2348F
331
2348D
  5
24B23
331
2450
  5
2450
331
604D
  5
604D
331
2458
  5
2458
331
24F7
  5
24F7
331
6016
  5
6016
331
605D
  5
605D
331
2460
  5
2460
331
24FF
  5
24FF
331
601E
  5
601E
331
2468
  5
2468
331
6065
  5
6067
331
6026
  5
6026
331
606C
  5
606F
331
23456
  5
23497
331
2345E
  5
234AF
331
23466
  5
234B7
331
2346E
  5
234BF
331
2470
  5
2470
331
2478
  5
2478
331
602E
  5
602E
331
6036
  5
6036
331
2488
  5
2488
331
2517
  5
2517
331
2449
  5
2449
331
603E
  5
603E
331
6007
  5
6007
331
6046
  5
6046
331
6145
  5
614A
331
607C
  5
6081
331
2343D
  5
2347E
331
2434
  5
2434
331
234BD
  5
24B43
331
2565
  5
2565
331
23476
  5
234C7
331
234AD
  5
24B33
331
234B5
  5
24B3B
331
23437
  5
23478
331
2347E
  5
234CF
331
23447
  5
23488
331
23486
  5
24B1C
331
2348E
  5
24B24
331
2344F
  5
23490
331
2451
  5
2451
331
24F0
  5
24F0
331
24F8
  5
24F8
331
2459
  5
2459
331
604E
  5
604E
331
2500
  5
2500
331
6017
  5
6017
331
2461
  5
2461
331
605E
  5
605E
331
6066
  5
6068
331
2469
  5
2469
331
601F
  5
601F
331
6027
  5
6027
331
6055
  5
6055
331
606D
  5
6070
331
6075
  5
6078
331
23457
  5
2349E
331
2345F
  5
234B0
331
2349E
  5
24B2C
331
23467
  5
234B8
331
2346F
  5
234C0
331
2471
  5
2471
331
602F
  5
602F
331
609E
  5
60A3
331
2479
  5
2479
331
2510
  5
2510
331
6037
  5
6037
331
2442
  5
2442
331
2489
  5
2489
331
24E9
  5
24E9
331
244A
  5
244A
331
603F
  5
603F
331
6047
  5
6047
331
6146
  5
614B
331
2343E
  5
2347F
331
2435
  5
2435
331
23430
  5
23472
331
23477
  5
234C8
331
2347F
  5
24AF2
331
234B6
  5
24B3C
331
23448
  5
23489
331
23487
  5
24B1D
331
2348F
  5
24B25
331
24F1
  5
24F1
331
6008
  5
6008
331
2452
  5
2452
331
604F
  5
604F
331
245A
  5
245A
331
24F9
  5
24F9
331
6010
  5
6010
331
6018
  5
6018
331
605F
  5
605F
331
2462
  5
2462
331
2501
  5
2501
331
6020
  5
6020
331
246A
  5
246A
331
6067
  5
6069
331
6056
  5
6056
331
23450
  5
23491
331
6076
  5
607B
331
23458
  5
234A1
331
2349F
  5
24B2D
331
23460
  5
234B1
331
23468
  5
234B9
331
6028
  5
6028
331
2472
  5
2472
331
609F
  5
60A4
331
247A
  5
247A
331
6030
  5
6030
331
6038
  5
6038
331
2443
  5
2443
331
248A
  5
248A
331
244B
  5
244B
331
6040
  5
6040
331
613F
  5
6144
331
6147
  5
66FD
331
2436
  5
2436
331
23470
  5
234C1
331
23478
  5
234C9
331
608E
  5
6099
331
234B7
  5
24B3D
331
23480
  5
24AFA
331
23449
  5
2348A
331
23488
  5
24B1E
331
6009
  5
6009
331
6048
  5
6048
331
2453
  5
2453
331
24F2
  5
24F2
331
24FA
  5
24FA
331
6011
  5
6011
331
245B
  5
245B
331
6058
  5
6058
331
6060
  5
6060
331
2502
  5
2502
331
6019
  5
6019
331
2463
  5
2463
331
246B
  5
246B
331
6021
  5
6021
331
6057
  5
6057
331
23490
  5
24B26
331
23451
  5
23492
331
6077
  5
607C
331
23459
  5
234A2
331
23461
  5
234B2
331
234A0
  5
24B2E
331
23469
  5
234BA
331
6029
  5
6029
331
2473
  5
2473
331
6031
  5
6031
331
247B
  5
247B
331
60A0
  5
60A5
331
251A
  5
251A
331
6039
  5
6039
331
2444
  5
2444
331
248B
  5
248B
331
6140
  5
6145
331
244C
  5
244C
331
6041
  5
6041
331
23438
  5
23479
331
234B8
  5
24B3E
331
2480
  5
2480
331
6087
  5
608A
331
23382
  5
233C3
331
23471
  5
234C2
331
2437
  5
2437
331
23479
  5
234CA
331
234B0
  5
24B36
331
23432
  5
23473
331
23481
  5
24AFB
331
23442
  5
23483
331
2344A
  5
2348B
331
23489
  5
24B1F
331
6049
  5
6049
331
2454
  5
2454
331
24F3
  5
24F3
331
600A
  5
600A
331
6059
  5
6059
331
245C
  5
245C
331
24FB
  5
24FB
331
6012
  5
6012
331
601A
  5
601A
331
2464
  5
2464
331
2503
  5
2503
331
6022
  5
6022
331
246C
  5
246C
331
6068
  5
606A
331
23452
  5
23493
331
23491
  5
24B27
331
2345A
  5
234A3
331
234A1
  5
24B2F
331
23462
  5
234B3
331
2346A
  5
234BB
331
602A
  5
602A
331
242D
  5
242D
331
2474
  5
2474
331
60A1
  5
60A6
331
247C
  5
247C
331
6032
  5
6032
331
603A
  5
603A
331
2445
  5
2445
331
251B
  5
251B
331
244D
  5
244D
331
6042
  5
6042
331
6141
  5
6146
331
6078
  5
607D
331
23439
  5
2347A
331
6080
  5
6083
331
2430
  5
2430
331
234B9
  5
24B3F
331
2481
  5
2481
331
23472
  5
234C3
331
234A9
  5
24B31
331
2347A
  5
234CB
331
234B1
  5
24B37
331
23443
  5
23484
331
23482
  5
24B18
331
2348A
  5
24B20
331
2344B
  5
2348C
331
604A
  5
604A
331
2455
  5
2455
331
24F4
  5
24F4
331
15839
  5
608F
331
24FC
  5
24FC
331
6013
  5
6013
331
245D
  5
245D
331
2465
  5
2465
331
2504
  5
2504
331
601B
  5
601B
331
246D
  5
246D
331
6023
  5
6023
331
6069
  5
606B
331
23492
  5
24B28
331
23453
  5
23494
331
2345B
  5
234A4
331
23463
  5
234B4
331
234A2
  5
24B30
331
2346B
  5
234BC
331
602B
  5
602B
331
2475
  5
2475
331
6033
  5
6033
331
243E
  5
243E
331
247D
  5
247D
331
251C
  5
251C
331
2446
  5
2446
331
603B
  5
603B
331
6142
  5
6147
331
24ED
  5
24ED
331
244E
  5
244E
331
6043
  5
6043
331
6081
  5
6086
331
2343A
  5
2347B
331
234BA
  5
24B40
331
2482
  5
2482
331
2431
  5
2431
331
234C2
  5
24B48
331
23473
  5
234C4
331
6089
  5
608E
331
2347B
  5
234CC
331
234B2
  5
24B38
331
23434
  5
23475
331
23483
  5
24B19
331
24AF2
  5
6092
331
23444
  5
23485
331
2344C
  5
2348D
331
2348B
  5
24B21
331
24AFA
  5
6062
331
2456
  5
2456
331
604B
  5
604B
331
6014
  5
6014
331
605B
  5
605B
331
245E
  5
245E
331
24FD
  5
24FD
331
601C
  5
601C
331
6063
  5
6065
331
2466
  5
2466
331
2505
  5
2505
331
6024
  5
6024
331
246E
  5
246E
331
606A
  5
606C
331
23454
  5
23495
331
23493
  5
24B29
331
2349B
  5
24B2B
331
2345C
  5
234A5
331
23464
  5
234B5
331
2346C
  5
234BD
  0
LAYOUT
  5
23
102
{ACAD_XDICTIONARY
360
28E79
102
}
102
{ACAD_REACTORS
330
19
102
}
330
19
100
AcDbPlotSettings
  1

  2
RICOH imagio Neo C380 RPCS
  4
A4
  6

 40
5.873749732971191
 41
5.873747825622557
 42
5.873748779296875
 43
5.873748779296875
 44
209.9733276367186
 45
296.9259948730469
 46
3.514152062224638
 47
7.28925913406374
 48
-336.9179713821613
 49
-4841.476761734121
140
45.47707861784147
141
-4300.276801734121
142
1.0
143
2.0
 70
 11956
 72
     1
 73
     0
 74
     4
  7
monochrome.ctb
 75
    17
147
0.5
 76
     0
 77
     2
 78
   300
148
336.9179713821613
149
4841.476761734121
100
AcDbLayout
  1
Model
 70
     1
 71
     0
 10
0.0
 20
0.0
 11
12.0
 21
9.0
 12
0.0
 22
0.0
 32
0.0
 14
0.0
 24
0.0
 34
0.0
 15
0.0
 25
0.0
 35
0.0
146
0.0
 13
0.0
 23
0.0
 33
0.0
 16
1.0
 26
0.0
 36
0.0
 17
0.0
 27
1.0
 37
0.0
 76
     0
330
20
331
24CED
1001
ACAD_PSEXT
1000
RICOH imagio Neo C380 RPCS
1000
RICOH imagio Neo C380 RPCS
1000
IP_192.168.0.105
1000
RPCS Driver (Windows 2000/XP/Server 2003)
1070
     0
  0
LAYOUT
  5
1F
102
{ACAD_REACTORS
330
19
102
}
330
19
100
AcDbPlotSettings
  1

  2
EPSON LP-2400
  4

  6

 40
0.0
 41
0.0
 42
0.0
 43
0.0
 44
0.0
 45
0.0
 46
0.0
 47
0.0
 48
0.0
 49
0.0
140
0.0
141
0.0
142
1.0
143
1.0
 70
   688
 72
     0
 73
     0
 74
     5
  7
monochrome.ctb
 75
    16
147
1.0
 76
     0
 77
     2
 78
   300
148
0.0
149
0.0
100
AcDbLayout
  1
レイアウト1
 70
     1
 71
     1
 10
0.0
 20
0.0
 11
12.0
 21
9.0
 12
0.0
 22
0.0
 32
0.0
 14
1.000000000000000E+20
 24
1.000000000000000E+20
 34
1.000000000000000E+20
 15
-1.000000000000000E+20
 25
-1.000000000000000E+20
 35
-1.000000000000000E+20
146
0.0
 13
0.0
 23
0.0
 33
0.0
 16
1.0
 26
0.0
 36
0.0
 17
0.0
 27
1.0
 37
0.0
 76
     0
330
1C
  0
MATERIAL
  5
24CFF
102
{ACAD_XDICTIONARY
360
24D00
102
}
102
{ACAD_REACTORS
330
1A
102
}
330
1A
100
AcDbMaterial
  1
ByBlock
 72
     0
 43
0.0208333333333333
 43
0.0
 43
0.0
 43
0.0
 43
0.0
 43
0.0208333333333333
 43
0.0
 43
0.0
 43
0.0
 43
0.0
 43
1.0
 43
0.0
 43
0.0
 43
0.0
 43
0.0
 43
1.0
 77
     0
 47
0.0208333333333333
 47
0.0
 47
0.0
 47
0.0
 47
0.0
 47
0.0208333333333333
 47
0.0
 47
0.0
 47
0.0
 47
0.0
 47
1.0
 47
0.0
 47
0.0
 47
0.0
 47
0.0
 47
1.0
171
     0
 49
0.0208333333333333
 49
0.0
 49
0.0
 49
0.0
 49
0.0
 49
0.0208333333333333
 49
0.0
 49
0.0
 49
0.0
 49
0.0
 49
1.0
 49
0.0
 49
0.0
 49
0.0
 49
0.0
 49
1.0
175
     0
142
0.0208333333333333
142
0.0
142
0.0
142
0.0
142
0.0
142
0.0208333333333333
142
0.0
142
0.0
142
0.0
142
0.0
142
1.0
142
0.0
142
0.0
142
0.0
142
0.0
142
1.0
179
     0
144
0.0208333333333333
144
0.0
144
0.0
144
0.0
144
0.0
144
0.0208333333333333
144
0.0
144
0.0
144
0.0
144
0.0
144
1.0
144
0.0
144
0.0
144
0.0
144
0.0
144
1.0
147
0.0208333333333333
147
0.0
147
0.0
147
0.0
147
0.0
147
0.0208333333333333
147
0.0
147
0.0
147
0.0
147
0.0
147
1.0
147
0.0
147
0.0
147
0.0
147
0.0
147
1.0
  0
MATERIAL
  5
24CF7
102
{ACAD_XDICTIONARY
360
24CF8
102
}
102
{ACAD_REACTORS
330
1A
102
}
330
1A
100
AcDbMaterial
  1
ByLayer
 72
     0
 43
0.0208333333333333
 43
0.0
 43
0.0
 43
0.0
 43
0.0
 43
0.0208333333333333
 43
0.0
 43
0.0
 43
0.0
 43
0.0
 43
1.0
 43
0.0
 43
0.0
 43
0.0
 43
0.0
 43
1.0
 77
     0
 47
0.0208333333333333
 47
0.0
 47
0.0
 47
0.0
 47
0.0
 47
0.0208333333333333
 47
0.0
 47
0.0
 47
0.0
 47
0.0
 47
1.0
 47
0.0
 47
0.0
 47
0.0
 47
0.0
 47
1.0
171
     0
 49
0.0208333333333333
 49
0.0
 49
0.0
 49
0.0
 49
0.0
 49
0.0208333333333333
 49
0.0
 49
0.0
 49
0.0
 49
0.0
 49
1.0
 49
0.0
 49
0.0
 49
0.0
 49
0.0
 49
1.0
175
     0
142
0.0208333333333333
142
0.0
142
0.0
142
0.0
142
0.0
142
0.0208333333333333
142
0.0
142
0.0
142
0.0
142
0.0
142
1.0
142
0.0
142
0.0
142
0.0
142
0.0
142
1.0
179
     0
144
0.0208333333333333
144
0.0
144
0.0
144
0.0
144
0.0
144
0.0208333333333333
144
0.0
144
0.0
144
0.0
144
0.0
144
1.0
144
0.0
144
0.0
144
0.0
144
0.0
144
1.0
147
0.0208333333333333
147
0.0
147
0.0
147
0.0
147
0.0
147
0.0208333333333333
147
0.0
147
0.0
147
0.0
147
0.0
147
1.0
147
0.0
147
0.0
147
0.0
147
0.0
147
1.0
  0
MATERIAL
  5
24D07
102
{ACAD_XDICTIONARY
360
24D08
102
}
102
{ACAD_REACTORS
330
1A
102
}
330
1A
100
AcDbMaterial
  1
Global
 72
     0
 43
0.0208333333333333
 43
0.0
 43
0.0
 43
0.0
 43
0.0
 43
0.0208333333333333
 43
0.0
 43
0.0
 43
0.0
 43
0.0
 43
1.0
 43
0.0
 43
0.0
 43
0.0
 43
0.0
 43
1.0
 77
     0
 47
0.0208333333333333
 47
0.0
 47
0.0
 47
0.0
 47
0.0
 47
0.0208333333333333
 47
0.0
 47
0.0
 47
0.0
 47
0.0
 47
1.0
 47
0.0
 47
0.0
 47
0.0
 47
0.0
 47
1.0
171
     0
 49
0.0208333333333333
 49
0.0
 49
0.0
 49
0.0
 49
0.0
 49
0.0208333333333333
 49
0.0
 49
0.0
 49
0.0
 49
0.0
 49
1.0
 49
0.0
 49
0.0
 49
0.0
 49
0.0
 49
1.0
175
     0
142
0.0208333333333333
142
0.0
142
0.0
142
0.0
142
0.0
142
0.0208333333333333
142
0.0
142
0.0
142
0.0
142
0.0
142
1.0
142
0.0
142
0.0
142
0.0
142
0.0
142
1.0
179
     0
144
0.0208333333333333
144
0.0
144
0.0
144
0.0
144
0.0
144
0.0208333333333333
144
0.0
144
0.0
144
0.0
144
0.0
144
1.0
144
0.0
144
0.0
144
0.0
144
0.0
144
1.0
147
0.0208333333333333
147
0.0
147
0.0
147
0.0
147
0.0
147
0.0208333333333333
147
0.0
147
0.0
147
0.0
147
0.0
147
1.0
147
0.0
147
0.0
147
0.0
147
0.0
147
1.0
  0
MLEADERSTYLE
  5
24D3B
102
{ACAD_REACTORS
330
24D3A
102
}
330
24D3A
100
AcDbMLeaderStyle
170
     2
171
     1
172
     0
 90
        2
 40
0.0
 41
0.0
173
     1
 91
-1056964608
340
13
 92
       -2
290
     1
 42
0.09
291
     1
 43
0.36
  3
Standard
 44
0.18
300

342
11
174
     1
178
     6
175
     1
176
     0
 93
-1056964608
 45
0.18
292
     0
297
     0
 46
0.18
 94
-1056964608
 47
1.0
 49
1.0
140
1.0
293
     1
141
0.0
294
     1
177
     0
142
1.0
295
     0
296
     0
143
0.125
1001
ACAD_MLEADERVER
1070
     2
  0
MLINESTYLE
  5
17
102
{ACAD_REACTORS
330
16
102
}
330
16
100
AcDbMlineStyle
  2
STANDARD
 70
     0
  3

 62
   256
 51
90.0
 52
90.0
 71
     2
 49
0.5
 62
   256
  6
BYLAYER
 49
-0.5
 62
   256
  6
BYLAYER
  0
ACDBPLACEHOLDER
  5
F
102
{ACAD_REACTORS
330
E
102
}
330
E
  0
SCALE
  5
24D29
102
{ACAD_REACTORS
330
24D28
102
}
330
24D28
100
AcDbScale
 70
     0
300
1:1
140
1.0
141
1.0
290
     1
  0
SCALE
  5
24D2A
102
{ACAD_REACTORS
330
24D28
102
}
330
24D28
100
AcDbScale
 70
     0
300
1/128" = 1'-0"
140
0.0078125
141
12.0
290
     0
  0
SCALE
  5
24D2B
102
{ACAD_REACTORS
330
24D28
102
}
330
24D28
100
AcDbScale
 70
     0
300
1/64" = 1'-0"
140
0.015625
141
12.0
290
     0
  0
SCALE
  5
24D2C
102
{ACAD_REACTORS
330
24D28
102
}
330
24D28
100
AcDbScale
 70
     0
300
1/32" = 1'-0"
140
0.03125
141
12.0
290
     0
  0
SCALE
  5
24D2D
102
{ACAD_REACTORS
330
24D28
102
}
330
24D28
100
AcDbScale
 70
     0
300
1/16" = 1'-0"
140
0.0625
141
12.0
290
     0
  0
SCALE
  5
24D2E
102
{ACAD_REACTORS
330
24D28
102
}
330
24D28
100
AcDbScale
 70
     0
300
3/32" = 1'-0"
140
0.09375
141
12.0
290
     0
  0
SCALE
  5
24D2F
102
{ACAD_REACTORS
330
24D28
102
}
330
24D28
100
AcDbScale
 70
     0
300
1/8" = 1'-0"
140
0.125
141
12.0
290
     0
  0
SCALE
  5
24D30
102
{ACAD_REACTORS
330
24D28
102
}
330
24D28
100
AcDbScale
 70
     0
300
3/16" = 1'-0"
140
0.1875
141
12.0
290
     0
  0
SCALE
  5
24D31
102
{ACAD_REACTORS
330
24D28
102
}
330
24D28
100
AcDbScale
 70
     0
300
1/4" = 1'-0"
140
0.25
141
12.0
290
     0
  0
SCALE
  5
24D32
102
{ACAD_REACTORS
330
24D28
102
}
330
24D28
100
AcDbScale
 70
     0
300
3/8" = 1'-0"
140
0.375
141
12.0
290
     0
  0
SCALE
  5
24D33
102
{ACAD_REACTORS
330
24D28
102
}
330
24D28
100
AcDbScale
 70
     0
300
1/2" = 1'-0"
140
0.5
141
12.0
290
     0
  0
SCALE
  5
24D34
102
{ACAD_REACTORS
330
24D28
102
}
330
24D28
100
AcDbScale
 70
     0
300
3/4" = 1'-0"
140
0.75
141
12.0
290
     0
  0
SCALE
  5
24D35
102
{ACAD_REACTORS
330
24D28
102
}
330
24D28
100
AcDbScale
 70
     0
300
1" = 1'-0"
140
1.0
141
12.0
290
     0
  0
SCALE
  5
24D36
102
{ACAD_REACTORS
330
24D28
102
}
330
24D28
100
AcDbScale
 70
     0
300
1-1/2" = 1'-0"
140
1.5
141
12.0
290
     0
  0
SCALE
  5
24D37
102
{ACAD_REACTORS
330
24D28
102
}
330
24D28
100
AcDbScale
 70
     0
300
3" = 1'-0"
140
3.0
141
12.0
290
     0
  0
SCALE
  5
24D38
102
{ACAD_REACTORS
330
24D28
102
}
330
24D28
100
AcDbScale
 70
     0
300
6" = 1'-0"
140
6.0
141
12.0
290
     0
  0
SCALE
  5
24D39
102
{ACAD_REACTORS
330
24D28
102
}
330
24D28
100
AcDbScale
 70
     0
300
1'-0" = 1'-0"
140
12.0
141
12.0
290
     0
  0
TABLESTYLE
  5
7C4
102
{ACAD_XDICTIONARY
360
28E7B
102
}
102
{ACAD_REACTORS
330
7C3
102
}
330
7C3
100
AcDbTableStyle
  3
Standard
 70
     0
 71
     0
 40
0.06
 41
0.06
280
     0
281
     0
  7
Standard
140
0.18
170
     2
 62
     0
 63
     7
283
     0
274
    -2
284
     1
 64
     0
275
    -2
285
     1
 65
     0
276
    -2
286
     1
 66
     0
277
    -2
287
     1
 67
     0
278
    -2
288
     1
 68
     0
279
    -2
289
     1
 69
     0
  7
Standard
140
0.25
170
     5
 62
     0
 63
     7
283
     0
274
    -2
284
     1
 64
     0
275
    -2
285
     1
 65
     0
276
    -2
286
     1
 66
     0
277
    -2
287
     1
 67
     0
278
    -2
288
     1
 68
     0
279
    -2
289
     1
 69
     0
  7
Standard
140
0.18
170
     5
 62
     0
 63
     7
283
     0
274
    -2
284
     1
 64
     0
275
    -2
285
     1
 65
     0
276
    -2
286
     1
 66
     0
277
    -2
287
     1
 67
     0
278
    -2
288
     1
 68
     0
279
    -2
289
     1
 69
     0
  0
VISUALSTYLE
  5
24D15
102
{ACAD_XDICTIONARY
360
290A8
102
}
102
{ACAD_REACTORS
330
24D0F
102
}
330
24D0F
100
AcDbVisualStyle
  2

 70
     4
 71
     0
 72
     2
 73
     0
 90
        0
 40
-0.6
 41
-30.0
 62
     5
 63
     7
421
 16777215
 74
     1
 91
        4
 64
     7
 65
   257
 75
     1
175
     1
 42
1.0
 92
        0
 66
   257
 43
1.0
 76
     1
 77
     6
 78
     2
 67
     7
 79
     5
170
     0
171
     0
290
     0
174
     0
 93
        1
 44
0.0
173
     0
291
     0
 45
0.0
1001
ACAD
1000
AcDbSavedByObjectVersion
1070
     0
  0
VISUALSTYLE
  5
24D14
102
{ACAD_XDICTIONARY
360
290A6
102
}
102
{ACAD_REACTORS
330
24D0F
102
}
330
24D0F
100
AcDbVisualStyle
  2

 70
     7
 71
     1
 72
     0
 73
     1
 90
        0
 40
-0.6
 41
-30.0
 62
     5
 63
     7
421
 16777215
 74
     0
 91
        4
 64
     7
 65
   257
 75
     1
175
     1
 42
1.0
 92
        8
 66
     7
 43
1.0
 76
     1
 77
     6
 78
     2
 67
     7
 79
     5
170
     0
171
     0
290
     0
174
     0
 93
        1
 44
0.0
173
     0
291
     1
 45
0.0
1001
ACAD
1000
AcDbSavedByObjectVersion
1070
     0
  0
VISUALSTYLE
  5
24D1B
102
{ACAD_XDICTIONARY
360
290B4
102
}
102
{ACAD_REACTORS
330
24D0F
102
}
330
24D0F
100
AcDbVisualStyle
  2

 70
    12
 71
     2
 72
     2
 73
     0
 90
        0
 40
-0.6
 41
-30.0
 62
     5
 63
     7
421
 16777215
 74
     1
 91
        4
 64
     7
 65
   257
 75
     1
175
     1
 42
1.0
 92
        8
 66
     7
 43
1.0
 76
     1
 77
     6
 78
     2
 67
     7
 79
     5
170
     0
171
     0
290
     0
174
     0
 93
        1
 44
50.0
173
     0
291
     1
 45
0.0
1001
ACAD
1000
AcDbSavedByObjectVersion
1070
     0
  0
VISUALSTYLE
  5
24D1F
102
{ACAD_XDICTIONARY
360
290BC
102
}
102
{ACAD_REACTORS
330
24D0F
102
}
330
24D0F
100
AcDbVisualStyle
  2

 70
    16
 71
     2
 72
     2
 73
     3
 90
        0
 40
-0.6
 41
-30.0
 62
     5
 63
     8
421
  8421504
 74
     1
 91
        4
 64
     7
 65
   257
 75
     1
175
     1
 42
1.0
 92
        8
 66
     8
424
  8421504
 43
1.0
 76
     1
 77
     6
 78
     2
 67
     7
 79
     5
170
     0
171
     0
290
     0
174
     0
 93
        1
 44
0.0
173
     0
291
     1
 45
0.0
1001
ACAD
1000
AcDbSavedByObjectVersion
1070
     0
  0
VISUALSTYLE
  5
24D18
102
{ACAD_XDICTIONARY
360
290AE
102
}
102
{ACAD_REACTORS
330
24D0F
102
}
330
24D0F
100
AcDbVisualStyle
  2

 70
     9
 71
     3
 72
     2
 73
     0
 90
        0
 40
-0.6
 41
-30.0
 62
     5
 63
     7
421
 16777215
 74
     2
 91
        2
 64
     7
 65
   257
 75
     1
175
     1
 42
179.0
 92
        8
 66
     7
 43
1.0
 76
     1
 77
     6
 78
     2
 67
     7
 79
     3
170
     0
171
     0
290
     0
174
     0
 93
        1
 44
0.0
173
     0
291
     0
 45
0.0
1001
ACAD
1000
AcDbSavedByObjectVersion
1070
     0
  0
VISUALSTYLE
  5
24D1A
102
{ACAD_XDICTIONARY
360
290B2
102
}
102
{ACAD_REACTORS
330
24D0F
102
}
330
24D0F
100
AcDbVisualStyle
  2

 70
    11
 71
     2
 72
     2
 73
     0
 90
        0
 40
-0.6
 41
-30.0
 62
     5
 63
     7
421
 16777215
 74
     1
 91
        4
 64
     7
 65
   257
 75
     1
175
     1
 42
1.0
 92
        8
 66
     7
 43
1.0
 76
     1
 77
     6
 78
     2
 67
     7
 79
     5
170
     0
171
     0
290
     0
174
     0
 93
        1
 44
-50.0
173
     0
291
     1
 45
0.0
1001
ACAD
1000
AcDbSavedByObjectVersion
1070
     0
  0
VISUALSTYLE
  5
24D27
102
{ACAD_XDICTIONARY
360
290CC
102
}
102
{ACAD_REACTORS
330
24D0F
102
}
330
24D0F
100
AcDbVisualStyle
  2

 70
    22
 71
     2
 72
     2
 73
     0
 90
        0
 40
-0.6
 41
-30.0
 62
     5
 63
     7
421
 16777215
 74
     1
 91
        4
 64
     7
 65
   257
 75
     1
175
     1
 42
1.0
 92
        8
 66
     7
 43
1.0
 76
     1
 77
     6
 78
     2
 67
     7
 79
     5
170
     0
171
     0
290
     0
174
     0
 93
        1
 44
0.0
173
     0
291
     1
 45
0.0
1001
ACAD
1000
AcDbSavedByObjectVersion
1070
     0
  0
VISUALSTYLE
  5
24D1E
102
{ACAD_XDICTIONARY
360
290BA
102
}
102
{ACAD_REACTORS
330
24D0F
102
}
330
24D0F
100
AcDbVisualStyle
  2

 70
    15
 71
     2
 72
     2
 73
     0
 90
        0
 40
-0.6
 41
-30.0
 62
     5
 63
     7
421
 16777215
 74
     1
 91
        4
 64
     7
 65
   257
 75
     1
175
     1
 42
1.0
 92
        8
 66
     7
 43
1.0
 76
     1
 77
     6
 78
     2
 67
     7
 79
     5
170
     0
171
     0
290
     0
174
     0
 93
        1
 44
0.0
173
     0
291
     1
 45
0.0
1001
ACAD
1000
AcDbSavedByObjectVersion
1070
     0
  0
VISUALSTYLE
  5
24D10
102
{ACAD_XDICTIONARY
360
2909E
102
}
102
{ACAD_REACTORS
330
24D0F
102
}
330
24D0F
100
AcDbVisualStyle
  2

 70
     0
 71
     2
 72
     1
 73
     1
 90
        2
 40
-0.6
 41
30.0
 62
     5
 63
     7
421
 16777215
 74
     0
 91
        0
 64
     7
 65
   257
 75
     1
175
     1
 42
1.0
 92
        8
 66
     7
 43
1.0
 76
     1
 77
     6
 78
     2
 67
     7
 79
     5
170
     0
171
     0
290
     0
174
     0
 93
       13
 44
0.0
173
     0
291
     1
 45
0.0
1001
ACAD
1000
AcDbSavedByObjectVersion
1070
     0
  0
VISUALSTYLE
  5
24D11
102
{ACAD_XDICTIONARY
360
290A0
102
}
102
{ACAD_REACTORS
330
24D0F
102
}
330
24D0F
100
AcDbVisualStyle
  2

 70
     1
 71
     2
 72
     1
 73
     1
 90
        2
 40
-0.6
 41
30.0
 62
     5
 63
     7
421
 16777215
 74
     1
 91
        0
 64
     7
 65
   257
 75
     1
175
     1
 42
1.0
 92
        0
 66
   257
 43
1.0
 76
     1
 77
     6
 78
     2
 67
     7
 79
     5
170
     0
171
     0
290
     0
174
     0
 93
       13
 44
0.0
173
     0
291
     1
 45
0.0
1001
ACAD
1000
AcDbSavedByObjectVersion
1070
     0
  0
VISUALSTYLE
  5
24D12
102
{ACAD_XDICTIONARY
360
290A2
102
}
102
{ACAD_REACTORS
330
24D0F
102
}
330
24D0F
100
AcDbVisualStyle
  2

 70
     2
 71
     2
 72
     2
 73
     1
 90
        2
 40
-0.6
 41
30.0
 62
     5
 63
     7
421
 16777215
 74
     0
 91
        0
 64
     7
 65
   257
 75
     1
175
     1
 42
1.0
 92
        0
 66
     7
 43
1.0
 76
     1
 77
     6
 78
     2
 67
     7
 79
     5
170
     0
171
     0
290
     0
174
     0
 93
       13
 44
0.0
173
     0
291
     1
 45
0.0
1001
ACAD
1000
AcDbSavedByObjectVersion
1070
     0
  0
VISUALSTYLE
  5
24D13
102
{ACAD_XDICTIONARY
360
290A4
102
}
102
{ACAD_REACTORS
330
24D0F
102
}
330
24D0F
100
AcDbVisualStyle
  2

 70
     3
 71
     2
 72
     2
 73
     1
 90
        2
 40
-0.6
 41
30.0
 62
     5
 63
     7
421
 16777215
 74
     1
 91
        0
 64
     7
 65
   257
 75
     1
175
     1
 42
1.0
 92
        0
 66
   257
 43
1.0
 76
     1
 77
     6
 78
     2
 67
     7
 79
     5
170
     0
171
     0
290
     0
174
     0
 93
       13
 44
0.0
173
     0
291
     1
 45
0.0
1001
ACAD
1000
AcDbSavedByObjectVersion
1070
     0
  0
VISUALSTYLE
  5
24D17
102
{ACAD_XDICTIONARY
360
290AC
102
}
102
{ACAD_REACTORS
330
24D0F
102
}
330
24D0F
100
AcDbVisualStyle
  2

 70
     6
 71
     1
 72
     2
 73
     2
 90
        0
 40
-0.6
 41
-30.0
 62
     5
 63
     7
421
 16777215
 74
     2
 91
        2
 64
     7
 65
   257
 75
     2
175
     1
 42
40.0
 92
        0
 66
   257
 43
1.0
 76
     1
 77
     6
 78
     2
 67
     7
 79
     3
170
     0
171
     0
290
     0
174
     0
 93
        1
 44
0.0
173
     0
291
     0
 45
0.0
1001
ACAD
1000
AcDbSavedByObjectVersion
1070
     0
  0
VISUALSTYLE
  5
24D25
102
{ACAD_XDICTIONARY
360
290C8
102
}
102
{ACAD_REACTORS
330
24D0F
102
}
330
24D0F
100
AcDbVisualStyle
  2

 70
    20
 71
     2
 72
     2
 73
     0
 90
        0
 40
-0.6
 41
-30.0
 62
     5
 63
     7
421
 16777215
 74
     1
 91
        4
 64
     7
 65
   257
 75
     1
175
     1
 42
1.0
 92
       10
 66
     7
 43
1.0
 76
     1
 77
     6
 78
     2
 67
     7
 79
     5
170
     0
171
     0
290
     0
174
     0
 93
        1
 44
0.0
173
     0
291
     1
 45
0.0
1001
ACAD
1000
AcDbSavedByObjectVersion
1070
     0
  0
VISUALSTYLE
  5
24D1D
102
{ACAD_XDICTIONARY
360
290B8
102
}
102
{ACAD_REACTORS
330
24D0F
102
}
330
24D0F
100
AcDbVisualStyle
  2

 70
    14
 71
     2
 72
     2
 73
     0
 90
        0
 40
-0.6
 41
-30.0
 62
     5
 63
     7
421
 16777215
 74
     1
 91
        4
 64
     7
 65
   257
 75
     7
175
     7
 42
1.0
 92
        8
 66
     7
 43
1.0
 76
     1
 77
     6
 78
     2
 67
     7
 79
     5
170
     0
171
     0
290
     0
174
     0
 93
        1
 44
0.0
173
     0
291
     1
 45
0.0
1001
ACAD
1000
AcDbSavedByObjectVersion
1070
     0
  0
VISUALSTYLE
  5
24D26
102
{ACAD_XDICTIONARY
360
290CA
102
}
102
{ACAD_REACTORS
330
24D0F
102
}
330
24D0F
100
AcDbVisualStyle
  2

 70
    21
 71
     2
 72
     2
 73
     0
 90
        0
 40
-0.6
 41
-30.0
 62
     5
 63
     7
421
 16777215
 74
     1
 91
        4
 64
     7
 65
   257
 75
     1
175
     1
 42
1.0
 92
        9
 66
     7
 43
1.0
 76
     1
 77
     6
 78
     2
 67
     7
 79
     5
170
     0
171
     0
290
     0
174
     0
 93
        1
 44
0.0
173
     0
291
     1
 45
0.0
1001
ACAD
1000
AcDbSavedByObjectVersion
1070
     0
  0
VISUALSTYLE
  5
24D19
102
{ACAD_XDICTIONARY
360
290B0
102
}
102
{ACAD_REACTORS
330
24D0F
102
}
330
24D0F
100
AcDbVisualStyle
  2

 70
     8
 71
     2
 72
     3
 73
     0
 90
        2
 40
-0.6
 41
30.0
 62
     5
 63
     7
421
 16777215
 74
     0
 91
        0
 64
     7
 65
   257
 75
     1
175
     1
 42
1.0
 92
        8
 66
   257
 43
1.0
 76
     1
 77
     6
 78
     2
 67
     7
 79
     3
170
     0
171
     0
290
     0
174
     0
 93
       13
 44
0.0
173
     0
291
     0
 45
0.0
1001
ACAD
1000
AcDbSavedByObjectVersion
1070
     0
  0
VISUALSTYLE
  5
24D24
102
{ACAD_XDICTIONARY
360
290C6
102
}
102
{ACAD_REACTORS
330
24D0F
102
}
330
24D0F
100
AcDbVisualStyle
  2

 70
    27
 71
     2
 72
     2
 73
     1
 90
        2
 40
-0.6
 41
30.0
 62
     5
 63
     7
421
 16777215
 74
     0
 91
        4
 64
     7
 65
   257
 75
     1
175
     1
 42
1.0
 92
        8
 66
   257
 43
1.0
 76
     1
 77
     6
 78
     2
 67
     8
425
  7895160
 79
     3
170
     0
171
     0
290
     0
174
     0
 93
        5
 44
0.0
173
     0
291
     0
 45
0.0
1001
ACAD
1000
AcDbSavedByObjectVersion
1070
     0
  0
VISUALSTYLE
  5
24D23
102
{ACAD_XDICTIONARY
360
290C4
102
}
102
{ACAD_REACTORS
330
24D0F
102
}
330
24D0F
100
AcDbVisualStyle
  2

 70
    26
 71
     2
 72
     2
 73
     1
 90
        2
 40
-0.6
 41
30.0
 62
     5
 63
     7
421
 16777215
 74
     1
 91
       10
 64
     7
 65
   257
 75
     2
175
     1
 42
1.0
 92
        8
 66
   257
 43
1.0
 76
     1
 77
     6
 78
     2
 67
     7
 79
     3
170
     0
171
     0
290
     0
174
     0
 93
        5
 44
0.0
173
     0
291
     0
 45
0.0
1001
ACAD
1000
AcDbSavedByObjectVersion
1070
     0
  0
VISUALSTYLE
  5
24D20
102
{ACAD_XDICTIONARY
360
290BE
102
}
102
{ACAD_REACTORS
330
24D0F
102
}
330
24D0F
100
AcDbVisualStyle
  2

 70
    23
 71
     2
 72
     2
 73
     3
 90
        0
 40
-0.6
 41
-30.0
 62
     5
 63
     7
421
 16777215
 74
     2
 91
        2
 64
     7
 65
     7
 75
     1
175
     1
 42
40.0
 92
        8
 66
     7
 43
1.0
 76
     1
 77
     6
 78
     2
 67
     7
 79
     3
170
     0
171
     0
290
     0
174
     0
 93
        1
 44
0.0
173
     0
291
     0
 45
0.0
1001
ACAD
1000
AcDbSavedByObjectVersion
1070
     0
  0
VISUALSTYLE
  5
24D21
102
{ACAD_XDICTIONARY
360
290C0
102
}
102
{ACAD_REACTORS
330
24D0F
102
}
330
24D0F
100
AcDbVisualStyle
  2

 70
    24
 71
     1
 72
     2
 73
     2
 90
        0
 40
-0.6
 41
-30.0
 62
     5
 63
     7
421
 16777215
 74
     2
 91
        2
 64
     7
 65
     7
 75
     1
175
     1
 42
40.0
 92
       11
 66
     7
 43
1.0
 76
     1
 77
     6
 78
     2
 67
     7
 79
     6
170
     0
171
     0
290
     0
174
     0
 93
        1
 44
0.0
173
     0
291
     0
 45
0.0
1001
ACAD
1000
AcDbSavedByObjectVersion
1070
     0
  0
VISUALSTYLE
  5
24D1C
102
{ACAD_XDICTIONARY
360
290B6
102
}
102
{ACAD_REACTORS
330
24D0F
102
}
330
24D0F
100
AcDbVisualStyle
  2

 70
    13
 71
     2
 72
     2
 73
     0
 90
        0
 40
-0.6
 41
-30.0
 62
     5
 63
     7
421
 16777215
 74
     1
 91
        4
 64
     7
 65
   257
 75
     1
175
     1
 42
1.0
 92
       12
 66
     7
 43
1.0
 76
     1
 77
     6
 78
     2
 67
     7
 79
     5
170
     0
171
     0
290
     0
174
     0
 93
        1
 44
0.0
173
     0
291
     1
 45
0.0
1001
ACAD
1000
AcDbSavedByObjectVersion
1070
     0
  0
VISUALSTYLE
  5
24D16
102
{ACAD_XDICTIONARY
360
290AA
102
}
102
{ACAD_REACTORS
330
24D0F
102
}
330
24D0F
100
AcDbVisualStyle
  2

 70
     5
 71
     0
 72
     2
 73
     0
 90
        0
 40
-0.6
 41
-30.0
 62
     5
 63
     7
421
 16777215
 74
     1
 91
        4
 64
     7
 65
   257
 75
     1
175
     1
 42
1.0
 92
        0
 66
   257
 43
1.0
 76
     1
 77
     6
 78
     2
 67
     7
 79
     3
170
     0
171
     0
290
     0
174
     0
 93
        1
 44
0.0
173
     0
291
     0
 45
0.0
1001
ACAD
1000
AcDbSavedByObjectVersion
1070
     0
  0
VISUALSTYLE
  5
24D22
102
{ACAD_XDICTIONARY
360
290C2
102
}
102
{ACAD_REACTORS
330
24D0F
102
}
330
24D0F
100
AcDbVisualStyle
  2

 70
    25
 71
     2
 72
     2
 73
     1
 90
        1
 40
0.5
 41
-30.0
 62
     5
 63
     7
421
 16777215
 74
     1
 91
        0
 64
     7
 65
   257
 75
     1
175
     1
 42
1.0
 92
        8
 66
     7
 43
1.0
 76
     1
 77
     6
 78
     2
 67
     7
 79
     3
170
     0
171
     0
290
     0
174
     0
 93
       13
 44
0.0
173
     0
291
     0
 45
0.0
1001
ACAD
1000
AcDbSavedByObjectVersion
1070
     0
  0
DICTIONARYVAR
  5
286D3
102
{ACAD_REACTORS
330
7CA
102
}
330
7CA
100
DictionaryVariables
280
     0
  1
1:1
  0
DICTIONARYVAR
  5
286D2
102
{ACAD_REACTORS
330
7CA
102
}
330
7CA
100
DictionaryVariables
280
     0
  1
STANDARD
  0
DICTIONARYVAR
  5
7CB
102
{ACAD_REACTORS
330
7CA
102
}
330
7CA
100
DictionaryVariables
280
     0
  1
STANDARD
  0
DICTIONARYVAR
  5
24CE5
102
{ACAD_REACTORS
330
7CA
102
}
330
7CA
100
DictionaryVariables
280
     0
  1
1
  0
DICTIONARYVAR
  5
24CE6
102
{ACAD_REACTORS
330
7CA
102
}
330
7CA
100
DictionaryVariables
280
     0
  1

  0
DICTIONARYVAR
  5
2909A
102
{ACAD_REACTORS
330
7CA
102
}
330
7CA
100
DictionaryVariables
280
     0
  1
2
  0
XRECORD
  5
20CE5
102
{ACAD_REACTORS
330
20CE4
102
}
330
20CE4
100
AcDbXrecord
280
     1
330
21C34
330
21C39
330
21C3A
330
21C3C
330
21C4B
330
21C50
330
21C51
330
21C53
330
323C
330
323D
330
3246
330
3247
330
71D9
330
71DB
330
71DC
330
71E7
330
7176
330
71AC
330
71AE
330
71AF
330
71D3
330
6001
330
6002
330
6003
330
600B
330
600C
330
31EC
330
31F5
330
31F7
330
322A
330
322B
330
252E
330
254D
330
2414
330
2415
330
2416
330
2439
330
243A
330
24E6
330
23372
330
23373
330
23374
330
23377
330
233BB
330
233D8
330
233F8
330
7656
330
768C
330
768E
330
768F
330
76B3
330
76B9
330
76BB
330
76BC
330
76C7
330
0
330
0
330
0
330
0
330
0
330
0
330
0
330
0
330
0
330
0
330
0
330
0
330
0
330
0
330
0
330
0
330
0
330
0
330
0
330
0
330
0
330
0
330
0
330
0
330
0
330
0
330
0
330
0
330
0
330
0
330
0
330
0
330
0
330
0
330
0
330
0
330
0
330
0
330
0
330
0
330
0
330
0
330
0
330
0
330
0
330
0
330
0
330
0
330
0
330
0
330
0
330
0
330
0
330
0
330
0
330
0
330
0
330
0
330
0
330
0
330
0
330
0
330
0
330
0
330
0
330
0
330
0
330
0
330
0
330
0
330
0
330
0
330
0
330
0
330
0
330
0
330
0
330
0
330
0
330
0
330
0
330
0
330
0
330
0
330
0
330
0
330
0
330
0
330
0
330
0
330
0
330
0
330
0
330
0
330
0
330
0
330
0
330
0
330
0
330
0
330
0
330
0
330
0
330
0
330
0
330
0
330
0
330
0
330
0
330
0
330
0
330
0
330
0
330
0
330
0
330
0
330
0
330
0
330
0
330
0
330
0
330
0
330
0
330
0
330
0
330
0
330
0
330
0
330
0
330
0
330
0
330
0
330
0
330
0
330
0
330
0
330
0
330
0
330
0
330
0
330
0
330
0
330
0
330
0
330
0
330
0
330
0
330
0
330
0
330
0
330
0
330
0
330
0
330
0
330
0
330
0
330
0
330
0
330
0
330
0
330
0
330
0
330
0
330
0
330
0
330
0
330
0
330
0
330
0
330
0
330
0
330
0
330
0
330
0
330
0
330
0
330
0
330
0
330
0
330
0
330
0
330
0
330
0
330
0
330
0
330
0
330
0
330
0
330
0
330
0
330
0
330
0
330
0
330
0
330
0
330
0
330
0
330
0
330
0
330
0
330
0
330
0
330
0
330
0
330
0
330
0
330
0
330
0
330
0
330
0
330
0
330
0
330
0
330
0
330
0
330
0
330
0
330
0
330
0
330
0
330
0
330
0
330
0
330
0
330
0
330
0
330
0
330
0
330
0
330
0
330
0
330
0
330
0
330
0
330
0
330
0
330
0
330
0
330
0
330
0
330
0
330
0
330
0
330
0
330
0
330
0
330
0
330
0
330
0
330
0
330
0
330
0
330
0
330
0
330
0
330
0
330
0
330
0
330
0
330
0
330
0
330
0
330
0
330
0
330
0
  0
DICTIONARY
  5
28E79
330
23
100
AcDbDictionary
280
     1
281
     1
  3
ADSK_XREC_LAYOUTTHUMBNAIL
360
28E7A
  0
DICTIONARY
  5
24D00
330
24CFF
100
AcDbDictionary
280
     1
281
     1
  3
ACAD_XREC_ROUNDTRIP
360
28E80
  3
BUMPTILE
360
24D02
  3
DIFFUSETILE
360
24D01
  3
OPACITYTILE
360
24D05
  3
REFLECTIONTILE
360
24D04
  3
REFRACTIONTILE
360
24D06
  3
SPECULARTILE
360
24D03
  0
DICTIONARY
  5
24CF8
330
24CF7
100
AcDbDictionary
280
     1
281
     1
  3
ACAD_XREC_ROUNDTRIP
360
28E7F
  3
BUMPTILE
360
24CFA
  3
DIFFUSETILE
360
24CF9
  3
OPACITYTILE
360
24CFD
  3
REFLECTIONTILE
360
24CFC
  3
REFRACTIONTILE
360
24CFE
  3
SPECULARTILE
360
24CFB
  0
DICTIONARY
  5
24D08
330
24D07
100
AcDbDictionary
280
     1
281
     1
  3
ACAD_XREC_ROUNDTRIP
360
28E81
  3
BUMPTILE
360
24D0A
  3
DIFFUSETILE
360
24D09
  3
OPACITYTILE
360
24D0D
  3
REFLECTIONTILE
360
24D0C
  3
REFRACTIONTILE
360
24D0E
  3
SPECULARTILE
360
24D0B
  0
DICTIONARY
  5
28E7B
330
7C4
100
AcDbDictionary
280
     1
281
     1
  3
ACAD_ROUNDTRIP_2008_TABLESTYLE_CELLSTYLEMAP
360
2909B
  3
ACAD_XREC_ROUNDTRIP
360
2909D
  0
DICTIONARY
  5
290A8
330
24D15
100
AcDbDictionary
280
     1
281
     1
  3
ACAD_XREC_ROUNDTRIP
360
290A9
  0
DICTIONARY
  5
290A6
330
24D14
100
AcDbDictionary
280
     1
281
     1
  3
ACAD_XREC_ROUNDTRIP
360
290A7
  0
DICTIONARY
  5
290B4
330
24D1B
100
AcDbDictionary
280
     1
281
     1
  3
ACAD_XREC_ROUNDTRIP
360
290B5
  0
DICTIONARY
  5
290BC
330
24D1F
100
AcDbDictionary
280
     1
281
     1
  3
ACAD_XREC_ROUNDTRIP
360
290BD
  0
DICTIONARY
  5
290AE
330
24D18
100
AcDbDictionary
280
     1
281
     1
  3
ACAD_XREC_ROUNDTRIP
360
290AF
  0
DICTIONARY
  5
290B2
330
24D1A
100
AcDbDictionary
280
     1
281
     1
  3
ACAD_XREC_ROUNDTRIP
360
290B3
  0
DICTIONARY
  5
290CC
330
24D27
100
AcDbDictionary
280
     1
281
     1
  3
ACAD_XREC_ROUNDTRIP
360
290CD
  0
DICTIONARY
  5
290BA
330
24D1E
100
AcDbDictionary
280
     1
281
     1
  3
ACAD_XREC_ROUNDTRIP
360
290BB
  0
DICTIONARY
  5
2909E
330
24D10
100
AcDbDictionary
280
     1
281
     1
  3
ACAD_XREC_ROUNDTRIP
360
2909F
  0
DICTIONARY
  5
290A0
330
24D11
100
AcDbDictionary
280
     1
281
     1
  3
ACAD_XREC_ROUNDTRIP
360
290A1
  0
DICTIONARY
  5
290A2
330
24D12
100
AcDbDictionary
280
     1
281
     1
  3
ACAD_XREC_ROUNDTRIP
360
290A3
  0
DICTIONARY
  5
290A4
330
24D13
100
AcDbDictionary
280
     1
281
     1
  3
ACAD_XREC_ROUNDTRIP
360
290A5
  0
DICTIONARY
  5
290AC
330
24D17
100
AcDbDictionary
280
     1
281
     1
  3
ACAD_XREC_ROUNDTRIP
360
290AD
  0
DICTIONARY
  5
290C8
330
24D25
100
AcDbDictionary
280
     1
281
     1
  3
ACAD_XREC_ROUNDTRIP
360
290C9
  0
DICTIONARY
  5
290B8
330
24D1D
100
AcDbDictionary
280
     1
281
     1
  3
ACAD_XREC_ROUNDTRIP
360
290B9
  0
DICTIONARY
  5
290CA
330
24D26
100
AcDbDictionary
280
     1
281
     1
  3
ACAD_XREC_ROUNDTRIP
360
290CB
  0
DICTIONARY
  5
290B0
330
24D19
100
AcDbDictionary
280
     1
281
     1
  3
ACAD_XREC_ROUNDTRIP
360
290B1
  0
DICTIONARY
  5
290C6
330
24D24
100
AcDbDictionary
280
     1
281
     1
  3
ACAD_XREC_ROUNDTRIP
360
290C7
  0
DICTIONARY
  5
290C4
330
24D23
100
AcDbDictionary
280
     1
281
     1
  3
ACAD_XREC_ROUNDTRIP
360
290C5
  0
DICTIONARY
  5
290BE
330
24D20
100
AcDbDictionary
280
     1
281
     1
  3
ACAD_XREC_ROUNDTRIP
360
290BF
  0
DICTIONARY
  5
290C0
330
24D21
100
AcDbDictionary
280
     1
281
     1
  3
ACAD_XREC_ROUNDTRIP
360
290C1
  0
DICTIONARY
  5
290B6
330
24D1C
100
AcDbDictionary
280
     1
281
     1
  3
ACAD_XREC_ROUNDTRIP
360
290B7
  0
DICTIONARY
  5
290AA
330
24D16
100
AcDbDictionary
280
     1
281
     1
  3
ACAD_XREC_ROUNDTRIP
360
290AB
  0
DICTIONARY
  5
290C2
330
24D22
100
AcDbDictionary
280
     1
281
     1
  3
ACAD_XREC_ROUNDTRIP
360
290C3
  0
XRECORD
  5
28E7A
102
{ACAD_REACTORS
330
28E79
102
}
330
28E79
100
AcDbXrecord
280
     1
310
280000000001000077000000010008000000000000770000000000000000000000010000000000003028210000000000FFFFFF000000000000000000000000000000000000000000000000000000000000000000330000006600000099000000CC000000FF00000000330000333300006633000099330000CC330000FF3300
310
0000660000336600006666000099660000CC660000FF66000000990000339900006699000099990000CC990000FF99000000CC000033CC000066CC000099CC0000CCCC0000FFCC000000FF000033FF000066FF000099FF0000CCFF0000FFFF000000003300330033006600330099003300CC003300FF003300003333003333
310
33006633330099333300CC333300FF33330000663300336633006666330099663300CC663300FF66330000993300339933006699330099993300CC993300FF99330000CC330033CC330066CC330099CC3300CCCC3300FFCC330000FF330033FF330066FF330099FF3300CCFF3300FFFF330000006600330066006600660099
310
006600CC006600FF00660000336600333366006633660099336600CC336600FF33660000666600336666006666660099666600CC666600FF66660000996600339966006699660099996600CC996600FF99660000CC660033CC660066CC660099CC6600CCCC6600FFCC660000FF660033FF660066FF660099FF6600CCFF6600
310
FFFF660000009900330099006600990099009900CC009900FF00990000339900333399006633990099339900CC339900FF33990000669900336699006666990099669900CC669900FF66990000999900339999006699990099999900CC999900FF99990000CC990033CC990066CC990099CC9900CCCC9900FFCC990000FF99
310
0033FF990066FF990099FF9900CCFF9900FFFF99000000CC003300CC006600CC009900CC00CC00CC00FF00CC000033CC003333CC006633CC009933CC00CC33CC00FF33CC000066CC003366CC006666CC009966CC00CC66CC00FF66CC000099CC003399CC006699CC009999CC00CC99CC00FF99CC0000CCCC0033CCCC0066CC
310
CC0099CCCC00CCCCCC00FFCCCC0000FFCC0033FFCC0066FFCC0099FFCC00CCFFCC00FFFFCC000000FF003300FF006600FF009900FF00CC00FF00FF00FF000033FF003333FF006633FF009933FF00CC33FF00FF33FF000066FF003366FF006666FF009966FF00CC66FF00FF66FF000099FF003399FF006699FF009999FF00CC
310
99FF00FF99FF0000CCFF0033CCFF0066CCFF0099CCFF00CCCCFF00FFCCFF0000FFFF0033FFFF0066FFFF0099FFFF00CCFFFF00FFFFFF00000000000D0D0D001A1A1A00282828003535350043434300505050005D5D5D006B6B6B00787878008686860093939300A1A1A100AEAEAE00BBBBBB00C9C9C900D6D6D600E4E4E400
310
F1F1F100FFFFFF000000000000000000000000000000000000000000000000000000000000000000000000000000000000000000000000000000000000000000000000000000000000000000000000000000000000000000000000000000000000000000000000000000000000000000000000000000000000000000000000
310
00000000000000000000000000000000000000000000000000000000000000000000000000000000000000000000000000000000000000000000000000000000000000000000000000000000000000000000000000000000000000000000000000000000000000000000000000000000000000000000000000000000000000
310
00000000000000000000000000000000000000000000000000000000000000000000000000000000000000000000000000000000000000000000000000000000000000000000000000000000000000000000000000000000000000000000000000000000000000000000000000000000000000000000000000000000000000
310
00000000000000000000000000000000000000000000000000000000000000000000000000000000000000000000000000000000000000000000000000000000000000000000000000000000000000000000000000000000000000000000000000000000000000000000000000000000000000000000000000000000000000
310
00000000000000000000000000000000000000000000000000000000000000000000000000000000000000000000000000000000000000000000000000000000000000000000000000000000000000000000000000000000000000000000000000000000000000000000000000000000000000000000000000000000000000
310
00000000000000000000000000000000000000000000000000000000000000000000000000000000000000000000000000000000000000000000000000000000000000000000000000000000000000000000000000000000000000000000000000000000000000000000000000000000000000000000000000000000000000
310
00000000000000000000000000000000000000000000000000000000000000000000000000000000000000000000000000000000000000000000000000000000000000000000000000000000000000000000000000000000000000000000000000000000000000000000000000000000000000000000000000000000000000
310
00000000000000000000000000000000000000000000000000000000000000000000000000000000000000000000000000000000000000000000000000000000000000000000000000000000000000000000000000000000000000000000000000000000000000000000000000000000000000000000000000000000000000
310
00000000000000000000000000000000000000000000000000000000000000000000000000000000000000000000000000000000000000000000000000000000000000000000000000000000000000000000000000000000000000000000000000000000000000000000000000000000000000000000000000000000000000
310
00000000000000000000000000000000000000000000000000000000000000000000000000000000000000000000000000000000000000000000000000000000000000000000000000000000000000000000000000000000000000000000000000000000000000000000000000000000000000000000000000000000000000
310
00000000000000000000000000000000000000000000000000000000000000000000000000000000000000000000000000000000000000000000000000000000000000000000000000000000000000000000000000000000000000000000000000000000000000000000000000000000000000000000000000000000000000
310
00000000000000000000000000000000000000000000000000000000000000000000000000000000000000000000000000000000000000000000000000000000000000000000000000000000000000000000000000000000000000000000000000000000000000000000000000000000000000000000000000000000000000
310
00000000000000000000000000000000000000000000000000000000000000000000000000000000000000000000000000000000000000000000000000000000000000000000000000000000000000000000000000000000000000000000000000000000000000000000000000000000000000000000000000000000000000
310
00000000000000000000000000000000000000000000000000000000000000000000000000000000000000000000000000000000000000000000000000000000000000000000000000000000000000000000000000000000000000000000000000000000000000000000000000000000000000000000000000000000000000
310
00000000000000000000000000000000000000000000000000000000000000000000000000000000000000000000000000000000000000000000000000000000000000000000000000000000000000000000000000000000000000000000000000000000000000000000000000000000000000000000000000000000000000
310
00000000000000000000000000000000000000000000000000000000000000000000000000000000000000000000000000000000000000000000000000000000000000000000000000000000000000000000000000000000000000000000000000000000000000000000000000000000000000000000000000000000000000
310
00000000000000000000000000000000000000000000000000000000000000000000000000000000000000000000000000000000000000000000000000000000000000000000000000000000000000000000000000000000000000000000000000000000000000000000000000000000000000000000000000000000000000
310
00000000000000000000000000000000000000000000000000000000000000000000000000000000000000000000000000000000000000000000000000000000000000000000000000000000000000000000000000000000000000000000000000000000000000000000000000000000000000000000000000000000000000
310
00000000000000000000000000000000000000000000000000000000000000000000000000000000000000000000000000000000000000000000000000000000000000000000000000000000000000000000000000000000000000000000000000000000000000000000000000000000000000000000000000000000000000
310
00000000000000000000000000000000000000000000000000000000000000000000000000000000000000000000000000000000000000000000000000000000000000000000000000000000000000000000000000000000000000000000000000000000000000000000000000000000000000000000000000000000000000
310
00000000000000000000000000000000000000000000000000000000000000000000000000000000000000000000000000000000000000000000000000000000000000000000000000000000000000000000000000000000000000000000000000000000000000000000000000000000000000000000000000000000000000
310
00000000000000000000000000000000000000000000000000000000000000000000000000000000000000000000000000000000000000000000000000000000000000000000000000000000000000000000000000000000000000000000000000000000000000000000000000000000000000000000000000000000000000
310
00000000000000000000000000000000000000000000000000000000000000000000000000000000000000000000000000000000000000000000000000000000000000000000000000000000000000000000000000000000000000000000000000000000000000000000000000000000000000000000000000000000000000
310
00000000000000000000000000000000000000000000000000000000000000000000000000000000000000000000000000000000000000000000000000000000000000000000000000000000000000000000000000000000000000000000000000000000000000000000000000000000000000000000000000000000000000
310
00000000000000000000000000000000000000000000000000000000000000000000000000000000000000000000000000000000000000000000000000000000000000000000000000000000000000000000000000000000000000000000000000000000000000000000000000000000000000000000000000000000000000
310
00000000000000000000000000000000000000000000000000000000000000000000000000000000000000000000000000000000000000000000000000000000000000000000000000000000000000000000000000000000000000000000000000000000000000000000000000000000000000000000000000000000000000
310
00000000000000000000000000000000000000000000000000000000000000000000000000000000000000000000000000000000000000000000000000000000000000000000000000000000000000000000000000000000000000000000000000000000000000000000000000000000000000000000000000000000000000
310
00000000000000000000000000000000000000000000000000000000000000000000000000000000000000000000000000000000000000000000000000000000000000000000000000000000000000000000000000000000000000000000000000000000000000000000000000000000000000000000000000000000000000
310
00000000000000000000000000000000000000000000000000000000000000000000000000000000000000000000000000000000000000000000000000000000000000000000000000000000000000000000000000000000000000000000000000000000000000000000000000000000000000000000000000000000000000
310
00000000000000000000000000000000000000000000000000000000000000000000000000000000000000000000000000000000000000000000000000000000000000000000000000000000000000000000000000000000000000000000000000000000000000000000000000000000000000000000000000000000000000
310
00000000000000000000000000000000000000000000000000000000000000000000000000000000000000000000000000000000000000000000000000000000000000000000000000000000000000000000000000000000000000000000000000000000000000000000000000000000000000000000000000000000000000
310
00000000000000000000000000000000000000000000000000000000000000000000000000000000000000000000000000000000000000000000000000000000000000000000000000000000000000000000000000000000000000000000000000000000000000000000000000000000000000000000000000000000000000
310
00000000000000000000000000000000000000000000000000000000000000000000000000000000000000000000000000000000000000000000000000000000000000000000000000000000000000000000000000000000000000000000000000000000000000000000000000000000000000000000000000000000000000
310
00000000000000000000000000000000000000000000000000000000000000000000000000000000000000000000000000000000000000000000000000000000000000000000000000000000000000000000000000000000000000000000000000000000000000000000000000000000000000000000000000000000000000
310
00000000000000000000000000000000000000000000000000000000000000000000000000000000000000000000000000000000000000000000000000000000000000000000000000000000000000000000000000000000000000000000000000000000000000000000000000000000000000000000000000000000000000
310
00000000000000000000000000000000000000000000000000000000000000000000000000000000000000000000000000000000000000000000000000000000000000000000000000000000000000000000000000000000000000000000000000000000000000000000000000000000000000000000000000000000000000
310
00000000000000000000000000000000000000000000000000000000000000000000000000000000000000000000000000000000000000000000000000000000000000000000000000000000000000000000000000000000000000000000000000000000000000000000000000000000000000000000000000000000000000
310
00000000000000000000000000000000000000000000000000000000000000000000000000000000000000000000000000000000000000000000000000000000000000000000000000000000000000000000000000000000000000000000000000000000000000000000000000000000000000000000000000000000000000
310
00000000000000000000000000000000000000000000000000000000000000000000000000000000000000000000000000000000000000000000000000000000000000000000000000000000000000000000000000000000000000000000000000000000000000000000000000000000000000000000000000000000000000
310
00000000000000000000000000000000000000000000000000000000000000000000000000000000000000000000000000000000000000000000000000000000000000000000000000000000000000000000000000000000000000000000000000000000000000000000000000000000000000000000000000000000000000
310
00000000000000000000000000000000000000000000000000000000000000000000000000000000000000000000000000000000000000000000000000000000000000000000000000000000000000000000000000000000000000000000000000000000000000000000000000000000000000000000000000000000000000
310
00000000000000000000000000000000000000000000000000000000000000000000000000000000000000000000000000000000000000000000000000000000000000000000000000000000000000000000000000000000000000000000000000000000000000000000000000000000000000000000000000000000000000
310
00000000000000000000000000000000000000000000000000000000000000000000000000000000000000000000000000000000000000000000000000000000000000000000000000000000000000000000000000000000000000000000000000000000000000000000000000000000000000000000000000000000000000
310
00000000000000000000000000000000000000000000000000000000000000000000000000000000000000000000000000000000000000000000000000000000000000000000000000000000000000000000000000000000000000000000000000000000000000000000000000000000000000000000000000000000000000
310
00000000000000000000000000000000000000000000000000000000000000000000000000000000000000000000000000000000000000000000000000000000000000000000000000000000000000000000000000000000000000000000000000000000000000000000000000000000000000000000000000000000000000
310
00000000000000000000000000000000000000000000000000000000000000000000000000000000000000000000000000000000000000000000000000000000000000000000000000000000000000000000000000000000000000000000000000000000000000000000000000000000000000000000000000000000000000
310
00000000000000000000000000000000000000000000000000000000000000000000000000000000000000000000000000000000000000000000000000000000000000000000000000000000000000000000000000000000000000000000000000000000000000000000000000000000000000000000000000000000000000
310
00000000000000000000000000000000000000000000000000000000000000000000000000000000000000000000000000000000000000000000000000000000000000000000000000000000000000000000000000000000000000000000000000000000000000000000000000000000000000000000000000000000000000
310
00000000000000000000000000000000000000000000000000000000000000000000000000000000000000000000000000000000000000000000000000000000000000000000000000000000000000000000000000000000000000000000000000000000000000000000000000000000000000000000000000000000000000
310
00000000000000000000000000000000000000000000000000000000000000000000000000000000000000000000000000000000000000000000000000000000000000000000000000000000000000000000000000000000000000000000000000000000000000000000000000000000000000000000000000000000000000
310
00000000000000000000000000000000000000000000000000000000000000000000000000000000000000000000000000000000000000000000000000000000000000000000000000F5F5F5F5F5F5F5F5F5000000000000000000000000000000000000000000000000000000000000000000000000000000000000000000
310
00000000000000000000000000000000000000000000000000000000000000000000000000000000000000000000000000000000000000000000000000000000000000000000000000000000000000000000000000000000000000000000000000000000000000000000000000000000000000000000000000000000000000
310
00000000000000000000000000000000000000000000000000000000000000000000000000000000000000000000000000000000000000000000000000000000000000000000000000F5F500000000BE00000000F5F50000000000000000000000000000000000000000000000000000000000000000000000000000000000
310
00000000000000000000000000000000000000000000000000000000000000000000000000000000000000000000000000000000000000000000000000000000000000000000000000000000000000000000000000000000000000000000000000000000000000000000000000000000000000000000000000000000000000
310
00000000000000000000000000000000000000000000000000000000000000000000000000000000000000000000000000000000000000000000000000000000000000000000000000F5F5000000DCDCDCBEDCDCDC000000F5F500000000000000000000000000000000000000000000000000000000000000000000000000
310
00000000000000000000000000000000000000000000000000000000000000000000000000000000000000000000000000000000000000000000000000000000000000000000000000000000000000000000000000000000000000000000000000000000000000000000000000000000000000000000000000000000000000
310
00000000000000000000000000000000000000000000002D0000000000000000000000000000000000000000000000000000000000000000000000000000000000000000000000000000F50000DCDCDCDC0000BE00DCDCDCDCDC0000F50000000000000000000000000000000000000000000000000000BE00000000000000
310
00000000000000000000000000000000000000000000000000000000000000000000000000BE0000000000000000000000000000000000000000000000000000000000000000000000000000000000000000000000000000000000000000000000000000000000000000000000000000000000000000000000000000000000
310
000000000000000000000000000000000000000000DCDCDCDCDCDCDCDCDCDC00000000000000000000000000000000000000000000000000000000000000000000000000000000000000F5F500DCDCDC000000F5F5BEF5F5000000DCDCDC00F500000000000000000000000000000000000000000000000000BE0000000000
310
000000000000000000000000000000000000000000000000000000000000000000000000000000BE000000000000000000000000000000000000000000000000000000000000000000000000000000000000000000000000000000000000000000000000000000000000000000000000000000000000000000000000000000
310
0000000000000000000000000000000000000000DCDCDCDCDCDCDCDCDCDCDCDCDCDCDC00000000000000000000000000000000000000000000000000000000000000000000000000000000F50000DCDC0000F5F5F50000BE0000F5F5000000DCDC00F5000000000000000000000000000000000000000000000000BE000000
310
0000000000000000000000000000000000000000000000000000000000000000000000000000000000BE0000000000000000000000000000000000000000000000000000000000000000000000000000000000000000000000000000000000F5BEF50000000000000000000000000000000000000000000000000000000000
310
0000000000000000000000000000000000000000F5DCDCDCDCDCDC0000BE0000DCDCDCDCDCDCDC00000000000000000000000000000000000000000000000000000000000000000000000000F50000DCDC00F5F50000000000BE00000000F5F50000DCDC00F50000000000000000000000000000000000000000000000BE00
310
00000000000000000000000000000000000000000000000000000000000000000000000000000000000000BE00000000000000000000000000000000000000000000000000000000000000000000000000000000000000000000000000F5F5F5F500BE00F5F5F5000000000000000000000000000000000000000000000000
310
000000000000000000000000000000000000000000DCDCDCDCDC000000DCDCDCDCDCDC0000DCDCDCDCDC0000000000000000000000000000000000000000000000000000000000000000000000F50000DCDCF5F500000000000000BE000000000000F5F500DCDC00F500000000000000000000000000000000000000000000
310
BE00000000000000000000000000000000000000000000000000000000000000000000000000000000F5F5F5F5BEF5F5F5F5000000000000000000000000000000000000000000000000000000000000000000000000000000000000F5F5F50000DCDCDCDCDCDC0000F5F5F500000000000000000000000000000000000000
310
00000000000000000000000000000000000000000000F5DCDCDCDC00DCDCDCDCDCDCDCDCDCDCDCDC00DCDCDCDC00000000000000000000000000000000000000000000000000000000000000000000F500DCDC00F50000000000000000BE0000000000000000F500DC0000F500000000000000000000000000000000000000
310
0000BE0000000000000000000000000000000000000000000000000000000000000000000000000000F5F500000000BE00000000F5F50000000000000000000000000000000000000000000000000000000000000000000000000000F5F50000DCDCDCDCDCF5BEF5DCDCDCDC0000F5F5000000000000000000000000000000
310
000000000000000000000000000000000000000000000000DCDCDC00DCDCDCDCDC00F5BEF50000DCDCDCDC00DCDCDCDC0000000000000000000000000000000000000000000000000000000000000000F50000DC00F5000000000000000000BE000000000000000000F5DCDC00F50000000000000000000000000000000000
310
00000000BE000000000000000000000000000000000000000000000000000000000000000000000000F5F50000DCDCDCDCDCDCDCDC000000F5F50000000000000000000000000000000000000000000000000000000000000000000000F5000000DCDCF5F5000000BE0000F5F5DCDCDC0000F5000000000000000000000000
310
00000000000000000000000000000000000000000000000000DCDCDC00DCDCDCDCF5F5F500BE00F5F5F5F5DCDCDC00DCDCDCF500000000000000000000000000000000000000000000000000000000000000F500DCDCF500000000000000000000BE000000000000000000F500DCDC00F50000000000000000000000000000
310
0000F5F5F5F5BEF5F5F5F50000000000000000000000000000000000000000000000000000000000000000F500DCDCDCDCF500BE00F5DCDCDC000000F500000000000000000000000000000000000000000000000000000000000000000000F500DCDCF5F50000000000BE00000000F5F5DCDC00F500000000000000000000
310
0000000000000000000000000000000000000000000000000000DCDCDCDCDCDCDC00F500000000BE0000000000F5DCDCDC00DCDCDC00000000000000000000000000000000000000000000000000000000000000F500DC00F500000000000000000000BE00000000000000000000F5DCDC00F5000000000000000000000000
310
000000F500000000BE00000000F5000000000000000000000000000000000000000000000000000000000000F500DCDCDC00000000BE00000000DCDCDC00F5000000000000000000000000000000000000000000000000000000000000000000F500DCDCF500000000000000BE00000000000000DCDC00F500000000000000
310
00000000000000000000000000000000000000000000000000000000DCDC2DDCDCDC00F50000000000BE000000000000F5DCDCDCDC2DDCDC0000000000000000000000000000000000000000000000000000000000F500DCDCF50000000000000000000000BE00000000000000000000F500DC0000F5000000000000000000
310
00000000F50000DCF5F5BEF5DCDC0000F5000000000000000000000000000000000000000000000000000000F5F500DCDCF50000000000BE000000000000DCDC00F500000000000000000000000000000000000000000000000000000000000000F500DCDCF50000000000000000BE00000000000000F5DCDC00F500000000
310
0000000000000000000000000000000000000000000000000000000000DCDC0000DC2D00F500000000002D2D2D2D00000000F500DC2D0000DCDC0000000000000000000000000000000000000000000000000000000000F500DC00F50000000000000000000000BE00000000000000000000F500DCDC00F500000000000000
310
0000000000F500DCF5F5F500BE00F5F5DC0000F50000000000000000000000000000000000000000000000000000F50000DCF5000000000000BE000000000000F5DC0000F5000000000000000000000000000000000000000000000000000000000000F500DCF5000000000000000000BE0000000000000000F5DC00F50000
310
00000000000000000000000000000000000000000000000000000000000000DCDC0000DCDC2D2D0000002D2D2DBE002D2D000000002D2DDCDC00DCDC0000000000000000000000000000000000000000000000000000000000F500DC00F50000000000000000000000BE0000000000000000000000F5DCDC00F50000000000
310
000000000000F500DCF5F5000000BE000000F5DC00F50000000000000000000000000000000000000000000000000000F500DCDC00000000000000BE00000000000000DCDC00F50000000000000000000000000000000000000000000000000000000000F500DCDC00000000000000000000BE000000000000000000F5DC00
310
F50000000000000000000000000000000000000000000000000000000000000000DCDC00DCDC00F5002D2D2D2D2D00BE00002D2D2D2D2DF500DCDC0000DCDC00000000000000000000000000000000000000000000000000000000F5F5DCF5F50000000000000000000000BE0000000000000000000000F5F5DC00F5000000
310
00000000000000F50000F5F500000000BE00000000F5DC00F500000000000000000000000000000000000000000000000000F500DCF500000000000000BE0000000000000000DC0000F500000000000000000000000000000000000000000000000000000000F500DCF500000000000000000000BE000000000000000000F5
310
DC00F500000000000000000000000000000000000000000000000000000000002D00F5DC0000DCDC00F500002DBE000000BE00000000BE000000F5DCDC0000DCDC000000000000000000000000000000000000000000000000000000BEF5BEBEBEBEBEBEBEBEBEBEBEBEBEBEBEBEBEBEBEBEBEBEBEBEBEBEBEBEBEBEBEF500
310
000000000000000000F500DCF50000000000BE00000000F5F500F5000000000000000000000000000000000000000000002D00F500DCDC0000000000000000BE0000000000000000DC0000F5000000000000000000000000000000000000000000000000000000F500DCDC0000000000000000000000BE0000000000000000
310
0000DCDC00F5000000000000000000000000000000000000000000000000000000002D2D2D2D2D2D2D2DF50000000000BEBE00BE00BEBEBE00000000F5F5DC0000DCDC00000000000000000000000000000000000000000000000000000000F500F500000000000000000000000000BE00000000000000000000000000F500
310
F5000000000000002D2D2D2D2DF5000000000000BE0000000000F5F500F500000000000000000000000000000000000000002D2D2D2D2D2DF50000000000000000BE0000000000000000DCDC00F5000000000000000000000000000000000000000000000000000000F500DCF50000000000000000000000BE000000000000
310
00000000F5DC00F5000000000000000000000000000000000000000000000000000000002D2DBEDCBEBEDCBEBEBEBEBEBEBEBEBEBEBEBEBEBEBEBEBEBEBEBEBEDCBEBEDCDCBE000000000000000000000000000000000000000000000000000000F500F500000000000000000000000000BE00000000000000000000000000
310
F500F50000000000002D2D0000F500F5000000000000BE0000000000F5F500F500000000000000000000000000000000000000002D0000F500F5000000000000000000BE000000000000000000F500F5000000000000000000000000000000000000000000000000002D00F500DCF50000000000000000000000BE00000000
310
000000000000F5DC00F5000000000000000000000000000000000000000000000000000000002D00F5DC0000DCF5000000000000000000BE00000000000000000000DC0000DCDC00000000000000000000000000000000000000000000000000000000F500F500000000000000000000000000BE0000000000000000000000
310
0000F500F50000000000BEBE2D2D2D2D2D2DBEBEBEBEBEBEBEBEBEBEBEBEBEBEBEBEBEBEBEBEBEBE0000000000000000000000000000BE2D2DBEBEBEBEBEBEBEBEBEBEBEBEBEBEBEBEBEBEBEBEBEBEBEBEBEBEBEBEBE00000000000000000000000000000000000000002D2D2D2D2D2DF50000000000000000000000BE0000
310
000000000000000000DCF5F5000000000000000000000000000000000000000000000000000000000000F5DC0000DCF5000000000000000000BE000000000000000000F5DC0000DCDC00000000000000000000000000000000000000000000000000000000F500F5F5000000000000000000000000BE000000000000000000
310
000000F50000F500000000000000000000F500F5000000000000BE0000000000F5F500F50000000000000000000000000000000000000000000000F500F5F50000000000000000BE000000000000000000F500F50000000000000000000000000000000000000000000000002D2D2DBEBEF5BEBEBEBEBEBEBEBEBEBEBEBEBE
310
BEBEBEBEBEBEBEBEBEBEBEF5F5BEBE000000000000000000000000000000000000000000000000000000000000DCDC00DCDC000000000000000000BE000000000000000000F5DC0000DCDC0000000000000000000000000000000000000000000000000000000000F5F5F5000000000000000000000000BE00000000000000
310
0000000000F500F50000000000000000000000F500F5000000000000BE0000000000F500F5000000000000000000000000000000000000000000000000F500F5F50000000000000000BE0000000000000000F5F500F5000000000000000000000000000000000000000000000000002D00F500F50000000000000000000000
310
00BE0000000000000000000000F500F500000000000000000000000000000000000000000000000000000000000000DCDC0000DCF50000000000000000BE000000000000000000DCDC0000DCF50000000000000000000000000000000000000000000000000000000000F500F5000000000000000000000000BE0000000000
310
000000000000F5F500F50000000000000000000000F50000F50000000000BE00000000F5F500F500000000000000000000000000000000000000000000000000F500F500000000000000002D0000000000000000F5F500F5000000000000000000000000000000000000000000000000000000F500F5000000000000000000
310
000000BE0000000000000000000000F500F500000000000000000000000000000000000000000000000000000000000000DCDC0000DCDC0000000000000000BE0000000000000000F5DC0000DCDC000000000000000000000000000000000000000000000000000000000000F500F5F50000000000000000000000BE000000
310
0000000000000000F500F500000000000000000000000000F500F5F5000000002D00000000F500F50000000000000000000000000000000000000000000000000000F500F500000000000000002D0000000000000000F500F500000000000000000000000000000000000000000000000000000000F500F500000000000000
310
0000000000BE0000000000000000000000F500F500000000000000000000000000000000000000000000000000000000000000F5DCDC00DCDCF5000000000000002D0000000000000000DCDC0000DCDC00000000000000000000000000000000000000000000000000000000000000F500F50000000000000000000000BE00
310
000000000000000000F5F500F50000000000000000000000000000F500F5F5000000BE0000F5F50000F50000000000000000000000000000000000000000000000000000F50000F500000000000000BE000000000000F5F5F500F500000000000000000000000000000000000000000000000000000000F50000F500000000
310
00000000000000BE00000000000000000000F5F500F50000000000000000000000000000000000000000000000000000000000000000DCDC0000DCDCF5000000000000BE00000000000000F5DC0000DCDC0000000000000000000000000000000000000000000000000000000000000000F50000F500000000000000000000
310
BE00000000000000000000F500F500000000000000000000000000000000F500F5F5F5F5BEF5F5F50000F5000000000000000000000000000000000000000000000000000000F50000F5F5000000000000BE000000000000F5F500F5000000000000000000000000000000000000000000000000000000000000F500F50000
310
0000000000000000002D00000000000000000000F5F5F500000000000000000000000000000000000000000000000000000000000000000000DCDC0000DCDCF500000000002D000000000000DCDC000000DCDC000000000000000000000000000000000000000000000000000000000000000000F50000F500000000000000
310
00002D000000000000000000F500F5000000000000000000000000000000000000F5000000F5BE00000000F50000000000000000000000000000000000000000000000000000000000F5F500F5F50000000000BE0000000000F5F500F500000000000000000000000000000000000000000000000000000000000000F500F5
310
F500000000000000000000BE000000000000000000F5F500F500000000000000000000000000000000000000000000000000000000000000000000DCDCDC0000DCDCF500000000BE00000000F5DCDCDC0000DCDC0000000000000000000000000000000000000000000000000000000000000000000000F50000F500000000
310
000000002D00000000000000F5F500F50000000000000000000000000000000000000000F5F5F500BEF5F5F5F50000000000000000000000000000000000000000000000000000000000000000F500F5F500000000BE00000000F5000000F50000000000000000000000000000000000000000000000000000000000000000
310
F500F500000000000000000000BE000000000000000000F5F5F5000000000000000000000000000000000000000000000000000000000000000000000000DCDCDC0000DCDCDCF5F5F5BE00F5F5DCDCDC000000DCDCF5000000000000000000000000000000000000000000000000000000000000000000000000F5F500F5F5
310
000000000000BE0000000000F5F50000F5000000000000000000000000000000000000000000000000F5BE000000000000000000000000000000000000000000000000000000000000000000000000F5000000F5F5F5F5BEF5F5F5F5000000F500000000000000000000000000000000000000000000000000000000000000
310
0000F500F5F5000000000000000000BE0000000000000000F5F500F500000000000000000000000000000000000000000000000000000000000000000000000000DCDCDC000000DCDCDCDCDCDCDCDCDC000000DCDCDC00000000000000000000000000000000000000000000000000000000000000000000000000000000F5
310
0000F5F5F5000000BE0000F5F5F5000000F50000000000000000000000000000000000000000000000000000BE00000000000000000000000000000000000000000000000000000000000000000000000000F5F50000000000BE0000000000F5F5000000000000000000000000000000000000000000000000000000000000
310
0000000000F500F5F50000000000000000BE00000000000000F5F500F5000000000000000000000000000000000000000000000000000000000000000000000000000000DCDCDCDC0000000000BE000000000000DCDCDCF5000000000000000000000000000000000000000000000000000000000000000000000000000000
310
0000F5F5000000F5F5F5BEF5F500000000F5F5000000000000000000000000000000000000000000000000000000BE000000000000000000000000000000000000000000000000000000000000000000000000000000F5F5F5F500BE00F5F5F5F5000000000000000000000000000000000000000000000000000000000000
310
0000000000000000F50000F500000000000000BE000000000000F50000F50000000000000000000000000000000000000000000000000000000000000000000000000000000000DCDCDCDCDC000000BE000000DCDCDCDCDC000000000000000000000000000000000000000000000000000000000000000000000000000000
310
000000000000F5F500000000BE00000000F5F50000000000000000000000000000000000000000000000000000000000BE00000000000000000000000000000000000000000000000000000000000000000000000000000000000000F5BEF50000000000000000000000000000000000000000000000000000000000000000
310
0000000000000000000000F50000F5F50000000000BE00000000F5F50000F50000000000000000000000000000000000000000000000000000000000000000000000000000000000000000DCDCDCDCDCDCDCDCDCDCDCDCDCF50000000000000000000000000000000000000000000000000000000000000000000000000000
310
00000000000000000000F5F5F5F5F5F5F5F5F5000000000000000000000000000000000000000000000000000000000000000000000000000000000000000000000000000000000000000000000000000000002D2D2D000000000000000000000000000000000000002D2D2D00000000000000000000000000000000000000
310
0000000000000000000000000000F5F50000F5F5F5F5F5BEF5F5F5F50000F5F5000000000000000000000000000000000000000000000000000000000000000000000000000000000000000000000000F5DCDC2DDCDCDC00000000000000000000000000000000000000000000000000000000000000000000000000000000
310
000000000000000000000000000000000000000000000000000000000000000000000000000000000000000000000000000000000000000000000000000000000000000000000000000000000000000000000000002D2D2D000000000000000000000000000000000000002D2D2D0000000000000000000000000000000000
310
000000000000000000002D2D000000000000F5F50000F5F5F5BEF5F50000F5F500000000002D2D2D000000000000000000000000000000000000000000000000000000000000000000000000000000000000000000000000000000000000000000000000000000000000000000000000000000000000000000000000000000
310
00002D2D2D2D2D2D2D2D2D2D2D2D2D2D2D2D2D2D2D2D2D2D2D2D2D2D2D2D2D2D2D2D2D000000000000000000002D2D2D2D2D2D2D2D2D2D2D2D2D2D2D2D2D2D2D00000000000000000000000000000000000000000000002D2D2D2D2D2D2D2D2D2D2D2D2D2D2D2D2D2D2D2D2D2D2D2D2D000000000000000000000000000000
310
0000000000000000000000002D2D2D00000000000000F5F5F50000BE00F5F5F5000000000000002D2D2D0000000000000000000000000000000000000000000000000000000000002D2D2D2D2D2D2D2D2D2D2D2D2D2D2D2D2D2D2D2D2D2D2D2D2D2D2D2D2D2D2D2D2D2D2D2D00000000000000000000000000000000000000
310
000000002D000000000000000000000000002D2D2D2D2D000000000000000000000000002D000000000000000000002D2D2D00000000002D2D2D000000002D2D2D2D00000000000000000000000000000000000000000000002D002D2D000000000000002D2D2D000000002D00002D2D002D00000000000000000000000000
310
00000000000000000000000000002D2D2D2D2D2D2D2D2D2D2D2D2D2D2D2D2D2D2D2D2D2D2D2D2D2D2D2D2D2D0000000000000000000000000000000000000000000000000000000000002D2D2D2D2D2D00000000000000002D2D2D0000000000000000002D2D2D2DF5000000002D0000000000000000000000000000000000
310
000000000000F52D2D0000000000000000000000000000000000000000000000000000002D2DF52D2D2D2D0000000000002D002D0000000000000000000000002D2D2D2D00000000000000000000000000000000000000000000002D002D00000000000000000000000000002D2D0000002D002D2D2D2D2D2D000000000000
310
000000000000000000000000000000002D002D000000000000000000002D2D2D2D000000000000000000002D002D2D2D2D2D0000000000000000000000000000000000000000000000000000F500F500002D00000000000000000000000000000000000000002D00F500F5000000002D000000000000000000000000000000
310
0000000000000000F5F52D2D2D2D2D2D2D2D2D2D2D2D2D2D2D2D2D2D2D2D2D2D2D2D2D2D2D2D2DF5F500002D000000000000002D002D000000000000BE00002D2D002D2D002D0000002D2D000000000000000000000000000000000000F5F52D000000000000000000BE00000000002D2D00002DF5F500002D002D00000000
310
000000000000000000000000000000000000F5F52D000000000000000000000000BE00000000000000000000002D00F50000002D0000000000000000000000000000000000000000000000000000F500F5F5F52D00000000000000000000000000000000000000002DF5F5DCF50000002D2D00000000000000000000000000
310
00000000000000000000F5F52D0000000000000000000000002D2D2D000000000000000000000000DCF5F500002D000000000000002D002D000000000000BE0000002D2D2D00002D2D2D2D2D2D000000000000000000000000000000000000F5F52DF50000000000000000BE00000000002D2D00DC2DDCF500002D002D0000
310
0000000000000000000000000000000000000000F5F52D000000000000000000000000BE00000000000000000000002DDCF500002D2D0000000000000000000000000000000000000000000000000000F5F5F500F52D000000000000000000BE00002D2D0000000000002DDCDCDCDC0000002D2D0000000000000000000000
310
000000000000000000000000F5DCF5000000000000000000000000000000000000000000000000000000DCDCF5002D2D00000000000000F5F52DF50000000000BE0000002D2D2DF5F5F500002D2D2D000000000000000000000000000000000000F5F5DCDCDCF5000000000000BE000000000000F52DDCDCDCF500002D002D
310
00000000000000000000000000000000000000000000F5DC2DF50000000000000000000000BE00000000000000000000DC2DDCDC00002D2D000000000000000000000000000000000000000000000000000000F500F5DC2DF5F500000000000000BE00002D2D2D000000DCF52DDC00DCF50000002D2D000000000000000000
310
0000000000000000000000000000F5DCDCF5000000000000000000000000000000000000000000000000F5DCDCDCF5002D2D00000000000000F5DC2DDCDCF5F5F5F5F5F5F5F5F52DDCDCDCF500002D2D2D000000000000000000000000000000000000F5F5F5F5DCDCF5DCF5F5F500BE00F5F5F5DCDCDCDCDCDCDCF500002D
310
002D00000000000000000000000000000000000000000000F5F5DCDCF500000000000000000000BE000000000000000000F5DCDCDCDC00002D2D000000000000000000000000000000000000000000000000000000F50000F52DDC00F5F50000000000BE0000002D2DF5F5F5DCDC2DDCF5DCF5000000002D00000000000000
310
00000000000000000000000000000000F5F5F5DCDC000000000000000000000000002D2D00000000000000F5DCDCDCDCF5002D2D00000000000000F5F5F5F5DCDCDCDCDC2D2D2D2D2D2D2D2D2D2D2D2D2D2D2D000000000000000000000000000000000000F5F5F5F5F5F5F5F5DCDCDCDC2D2D2D2D2D2D2D2D2D2D2D2D2D2D
310
2D2D2D0000000000000000000000000000000000000000000000F5F5F5DCDCDCF50000000000000000BE00000000000000F5DCDCDCF5DCDC00002D2D000000000000000000000000000000000000000000000000000000F50000F5F5DCDCDC00F5F5F5F5F52D2D2D2D2D2D2D2D2D2D2D2D2D2D2D2D2D2D2D2D2D0000000000
310
000000000000000000000000000000000000F5F5F500DCDCF50000000000000000000000002D2D00000000F5F5DCDC00DCDCF5002D2D00000000000000F5F5F500F5F5F5F5F5F5F5F5F5F500DCDCDCF52D002D002D000000000000000000000000000000000000F5F5F500000000F5F5F5F5F5BEF5F5F5F5F500000000DCDC
310
F5002D2D000000000000000000000000000000000000000000000000F5F5F5F500DCDCDCF5F50000000000BE00000000002DDCDCDCF5DCDCDCDC00002D2D000000000000000000000000000000000000000000000000000000F50000F5F5F50000DCF5DCDC0000BE000000DCDCDCDCF5DC00DCDC00DCF500002D002D000000
310
0000000000000000000000000000000000000000F5F5F5002DDCDCDCF5000000000000000000002D2D0000F5F5DCDCDCDC00DCDCF500002D00000000000000F5F5F500F500000000BE0000000000DCDCDCF52D002D0000000000000000000000000000000000000000F5F5F500000000F500000000BE0000002D0000000000
310
DCDCF5002D2D000000000000000000000000000000000000000000000000F5F5F5F5000000DCDCDCDCF5F5F5F52D2D2D2D2D2D2D2D2D2D2D2D2D2D2D2D2D2D2D000000000000000000000000000000000000000000000000000000F50000F5F5F5F5F5F5F5DCDCDCDCDCDCDCDCDCDCDCDCDCDCDCDCDC00DCF500002D002D00
310
00000000000000000000000000000000000000000000F5F5F5002D0000DCDCDCF5F5F5000000000000002DF5F5DCDCDCF500DC00DCDCF500002D00000000000000F5F5F500F500000000BE002D2D0000DCDCDCF52D002D0000000000000000000000000000000000000000F5F5F500000000F500000000BE00002D2D000000
310
0000DCDCF52D2D2D000000000000000000000000000000000000000000000000F5F5F5F5F5F5F5F5F5F5DCDCDCDCDCDCDCDCDCDC2D2DDCDCDCDCDCDCDCDC002D002D0000000000000000000000000000000000000000000000000000F52D0000F5F500000000F5000000F5BEF5000000000000000000DCDC00DC2D00002D00
310
2D0000000000000000000000000000000000000000000000F5F5F5002D00000000DCDCDCDCDCF5F5F5F5F5DC2DDCDCDCF52D2D2DDC2DDCDCF52D2D2D2D000000000000F5F5F500F500000000BE00002D0000DCDCDCF52D002D00000000000000000000000000000000000000002D2DF500000000F500000000BE00002D2D00
310
00000000DC2D2D2D2D2D000000000000000000000000000000000000000000000000F5F5F500000000000000F5F5F5F5F5BEF5F5F500002D2D00000000DCDCDC002D002D0000000000000000000000000000000000000000000000000000F52DF500F5F500000000F500000000BE00000000002D00000000DCDCF52D2D002D
310
2D002D0000000000000000000000000000000000000000000000F5F5F52D2D2D2D2D2D2D2D2DF5DCDCDCDCDCDCF5F5F5DCDCDCDCDCDCDCDCDCDCF5002D2D000000000000F52DF5F500F5F5000000BE00002D2D00DCDCDC2D2D2D2D00000000000000000000000000000000000000002D2DF500000000F5F5000000BE000000
310
2D00000000F5DC2D2D002D2D0000000000000000000000000000000000000000000000002D2DF500000000000000F5F5000000BE00000000002D2D00000000DCDC2D002D002D0000000000000000000000000000000000000000000000000000002DF5F52DF500000000F500000000BE00000000002D2D000000DCDCF52D2D
310
002D2D002D0000000000000000000000000000000000000000000000F5F5F5000000000000000000F500F5F5F5F5000000000000000000000000DCDCF5002D2D0000000000002D2DF5F50000F5F50000BE00002D2DF5DCDCDC2D2D2D2D00000000000000000000000000000000000000002D2DF50000000000F5000000BE00
310
00002D2DF5F5F5F5DC2D2D002D2D0000000000000000000000000000000000000000000000002D2DF50000000000000000F5000000BE0000000000000000000000DCDC2D2D2D002D0000000000000000000000000000000000000000000000000000002D00F5F5F500000000F5F5000000BE00000000002D2D00F5F5DCF500
310
2D2D00002D002D0000000000000000000000000000000000000000000000F5F5F50000000000000000F5F5000000BE000000002D2D00000000000000DCDC002D2D2D0000000000002D2D00F50000F5F5F5F52D2D2D2D2D2D2D2D2D2D2D2D2D00000000000000000000000000000000000000002D2DF50000000000F5F5F5F5
310
2D2D2D2D2D2D2D2D2D2D2D2D2D2D2D2D0000000000000000000000000000000000000000000000002D2DF50000000000000000F5000000BE000000000000000000F5F5DCDC2D2D2D002D0000000000000000000000000000000000000000000000000000002D0000F5F50000000000F5000000BE0000000000F52DF5F5F5DC
310
00002D2D00002D2D2D00000000000000000000000000000000000000000000002DF5F50000000000000000F500000000BE000000002D2D0000000000F5F5DC2D002D2D2D0000000000002D2D00F500F500000000BE0000000000DCF5002D2D2D2D00000000000000000000000000000000000000002D2DF500000000F5F500
310
0000BE000000000000000000DC2D2D002D2D0000000000000000000000000000000000000000000000002D2DF50000000000000000F5000000BE00000000000000F5F500F5DCF52D002D2D2D0000000000000000000000000000000000000000000000000000002D0000F5F50000000000F5F5F5F5BEF5F5F5F5F5F5F50000
310
00DC00002D2D00002D2D2D00000000000000000000000000000000000000000000002DF5F50000000000000000F500000000BE00000000002D2D0000F5F5F500F52D002D2D2D0000000000002D2DF5F5F5F5F5F5F5F5F5F5F5F5F5F5F5F5002D2D002D00000000000000000000000000000000000000002D2DF500000000F5
310
F5F5F5F5BEF5F5F5F5F5F5F5F5F5DC2D2D2D2D2D0000000000000000000000000000000000000000000000002D2DF50000000000000000F5000000BE00002DF5F5F5F5F5F5F500DCF52D002D2D2D0000000000000000000000000000000000000000000000000000002D0000F5F50000000000F500F5F52D2D2D2D2D2D2D2D
310
2D2D2D2D2D2D2D2D2D2D2D2D2D00000000000000000000000000000000000000000000002DF5F50000000000000000F500000000BE0000000000002DF5F5F5000000F52D00002D2D0000000000002D2DF5F5F5F5F5F5F5F5F5F5F5F5F5F5DCF5002D2D002D00000000000000000000000000000000000000002D2DF5F5F5F5
310
F5F5F5F5F5F5BEF5F5F5F5F5F5F5F5F5DC2D2D2D2D2D0000000000000000000000000000000000000000000000002D2DF500000000000000F5F5F5F5F52D2D2D2D2D2D2D2D2D2D2D2D2D2D2D2D2D2D2D0000000000000000000000000000000000000000000000000000002D0000F5F500000000F5F5000000BE0000000000
310
0000000000DC00002D2D00002D002D00000000000000000000000000000000000000000000002DF5F50000000000000000F5F5F5F5F5F5F5F5F5F5F5F5F5000000000000F52D00002D2D0000000000002D2DF5F5F5F5F5F5F5F5F5F5F5F5F5F5DCF5002D2D002D00000000000000000000000000000000000000002D2DF5F5
310
F5F5F5F500000000BE000000000000000000DC2D2D2D2D2D0000000000000000000000000000000000000000000000002D2DF500000000000000F500000000BE00002D0000000000000000DCF52D002D002D0000000000000000000000000000000000000000000000000000002D0000F5F500000000F500000000BE000000
310
00000000000000DC00002D2D002D2D002D00000000000000000000000000000000000000000000002DF5F5000000000000000000F5F5F5F5F5F5F5F5F5F52D2D2D2D2D2D2D2DF52D2D2D2D2D0000000000002D2DF5F5F5F5F5F5F5F5F5F5F5F5F5F5F5F5002D2D2D2D00000000000000000000000000000000000000002D2D
310
F5F5F5F5F5F5F5F5F5F5BEF5F5F5F5F5F5F5F5F5DC2D2D002D2D0000000000000000000000000000000000000000000000002D2DF500000000000000F5F5F5F5F5BEF5F52D2DF5F5F5F5F5F5F5DCF52D2D2D002D0000000000000000000000000000000000000000000000000000002D0000F5F500000000F5F5F5F5F5BEF5
310
F5F5F5F5F5F5F5F5F5DC00002D2D002D2D002D00000000000000000000000000000000000000000000002DF5F5000000000000000000F5000000BE00000000000000000000000000F52D00002D2D0000000000002D2D0000000000000000BE00000000000000002D0000000000000000000000000000000000000000000000
310
2D2DF5F5F5F5F5F5F5F5F5F5BEF5F5F5F5F5F5F5F5F52D2D2D2D2D2D2D00000000000000000000000000000000000000000000002D2DF5F5F5F5F5F5F5F5F5F5F5F5F5BEF5F52D2DF5F5F5F5F5F5F5DCF52D2D2D002D0000000000000000000000000000000000000000000000000000002D0000F5F5F5F5F5F5F5F5F5F5F5
310
BEF5F5F5F5F5F5F5F5F5F5DC00002D2D00002D002D00000000000000000000000000000000000000000000002DF5F50000000000000000F5F5F5F5F5BEF5F5F5F5F5F5F5F5F5F5F5F5F5F52D002D2D2D0000000000002D2D00000000000000000000000000000000002D000000000000000000000000000000000000000000
310
00002D2D2D2D2D2D2D2D2D2D2D2D2D2D2D2D2D2D2D2D2D2D2D2D2D0000000000000000000000000000000000000000000000000000002D2DF5F5F5F5F5F5F5F5F500000000BE0000002D00000000000000DCF52D002D002D0000000000000000000000000000000000000000000000000000002D0000F5F5F5F5F5F5F5F5F5
310
F5F5BEF5F5F5F5F5F5F5F5F5F5DC00002D2D00002D002D00000000000000000000000000000000000000000000002DF5F5F5F5F5F5F5F5F5F5F5F5F5F5F5BEF5F5F5F5F5F5F5F5F5F5F5F5F5DC2D002D2D2D0000000000002D2D2D2D2D2D2D2D2D2D2D2D2D2D2D2D2D2D2D2D00000000000000000000000000000000000000
310
000000002D000000000000000000002D2D2D000000000000000000002D0000000000000000000000000000000000000000000000000000002D2DF5F5F5F5F5F5F5F5F5F5F5F5F5BEF5F5F5F5F5F5F5F5F5F5F5F52D2D2D2D2D2D0000000000000000000000000000000000000000000000000000002D0000F5F5F5F5F5F5F5
310
F5F5F5F5BEF5F5F5F5F5F5F5F5F5F52D2D2D2D2D2D2D2D2D2D00000000000000000000000000000000000000000000002DF5F5F5F5F5F5F5F5F5F5F5F5F5F5F5BEF5F5F5F5F5F5F5F5F5F5F5F5F5DC2D00002D2D0000000000002D2D000000000000002D2D2D0000000000002D2D0000000000000000000000000000000000
310
0000000000002D2D2D2D2D2D2D2D2D2D2D2D2D2D2D2D2D2D2D2D2D2D2D2D2D0000000000000000000000000000000000000000000000000000002D2D0000000000000000F500000000BE0000000000000000000000002D2D000000000000000000000000000000000000000000000000000000000000002D00000000000000
310
00000000000000000000000000000000000000002D2D000000000000000000000000000000000000000000000000000000002DF5F5F5F5F5F5F5F5F5F5F5F5F5F5F5BEF5F5F5F5F5F5F5F5F5F5F5F5F52D2D2D2D2D2D2D00000000002D0000000000000000000000000000000000002D000000000000000000000000000000
310
0000000000000000000000000000000000002D2D2D2D2D000000000000000000000000000000000000000000000000000000000000000000000000002D2D2D2D2D2D2D2D2D2D2D2D2D2D2D2D2D2D2D2D2D2D2D2D2D2D2D2D2D2D000000000000000000000000000000000000000000000000000000000000002D2D2D2D2D2D
310
2D2D2D2D2D2D2D2D2D2D2D2D2D2D2D2D2D2D2D2D2D2D2D2D000000000000000000000000000000000000000000000000000000002D0000000000000000000000F50000000000000000000000000000000000002D2D0000000000000000002D2D2D2D2D2D2D2D2D2D2D2D2D2D2D2D2D2D2D2D00000000000000000000000000
310
00000000000000000000000000000000000000000000000000000000000000000000000000000000000000000000000000000000000000000000000000002D000000000000000000000000000000000000000000000000000000002D000000000000000000000000000000000000000000000000000000000000002D000000
310
0000000000000000002D2D2D2D0000000000000000000000002D000000000000000000000000000000000000000000000000000000002D0000000000000000000000000000000000000000000000000000000000002D2D0000000000000000000000000000000000002D2D0000000000000000000000000000000000000000
310
000000000000000000000000000000000000000000000000000000000000000000000000000000000000000000000000000000000000000000000000000000002D2D2D2D2D2D2D2D2D2D2D2D2D2D2D2D2D2D2D2D2D2D2D2D2D2D2D2D2D2D000000000000000000000000000000000000000000000000000000000000002D2D
310
2D2D2D2D2D2D2D2D2D2D2D2D2D2D2D2D2D2D2D2D2D2D2D2D2D2D2D2D000000000000000000000000000000000000000000000000000000002D2D2D2D2D2D2D2D2D2D2D2D2D2D2D2D2D2D2D2D2D2D2D2D2D2D2D2D2D2D2D2D2D0000000000000000000000000000000000000000000000000000000000000000000000000000
310
000000000000000000000000000000000000000000000000000000000000000000000000000000000000000000000000000000000000000000000000000000000000000000000000000000000000002D2D2D2D0000000000000000000000000000000000000000000000000000000000000000000000000000000000000000
310
000000000000000000000000002D2D2D2D00000000000000000000000000000000000000000000000000000000000000000000000000000000002D00000000000000000000000000002D2D2D000000000000000000000000002D2D000000000000000000000000000000000000000000000000000000000000000000000000
310
00000000000000000000000000000000000000000000000000000000000000000000000000000000000000000000000000000000000000000000000000000000000000000000000000000000000000000000000000000000000000000000000000000000000000000000000000000000000000000000000000000000000000
310
0000000000000000000000000000000000000000000000000000000000000000000000000000000000000000000000000000000000000000000000002D2D2D2D2D2D2D2D2D2D2D2D2D2D2D2D2D2D2D2D2D2D2D2D2D2D2D2D2D2D2D2D2D00000000000000000000000000000000000000000000000000000000000000000000
310
00000000000000000000000000000000000000000000000000000000000000000000000000000000000000000000000000000000000000000000000000000000000000000000000000000000000000000000000000000000000000000000000000000000000000000000000000000000000000000000000000000000000000
310
00000000000000000000000000000000000000000000000000000000000000000000000000000000000000000000000000000000000000000000000000000000000000000000000000000000000000000000000000000000000000000000000000000000000000000000000000000000000000000000000000000000000000
310
00000000000000000000000000000000000000000000000000000000000000000000000000000000000000000000000000000000000000000000000000000000000000000000000000000000000000000000000000000000000000000000000000000000000000000000000000000000000000000000000000000000000000
310
00000000000000000000000000000000000000000000000000000000000000000000000000000000000000000000000000000000000000000000000000000000000000000000000000000000000000000000000000000000000000000000000000000000000000000000000000000000000000000000000000000000000000
310
00000000000000000000000000000000000000000000000000000000000000000000000000000000000000000000000000000000000000000000000000000000000000000000000000000000000000000000000000000000000000000000000000000000000000000000000000000000000000000000000000000000000000
310
00000000000000000000000000000000000000000000000000000000000000000000000000000000000000000000000000000000000000000000000000000000000000000000000000000000000000000000000000000000000000000000000000000000000000000000000000000000000000000000000000000000000000
310
00000000000000000000000000000000000000000000000000000000000000000000000000000000000000000000000000000000000000000000000000000000000000000000000000000000000000000000000000000000000000000000000000000000000000000000000000000000000000000000000000000000000000
310
00000000000000000000000000000000000000000000000000000000000000000000000000000000000000000000000000000000000000000000000000000000000000000000000000000000000000000000000000000000000000000000000000000000000000000000000000000000000000000000000000000000000000
310
00000000000000000000000000000000000000000000000000000000000000000000000000000000000000000000000000000000000000000000000000000000000000000000000000000000000000000000000000000000000000000000000000000000000000000000000000000000000000000000000000000000000000
310
00000000000000000000000000000000000000000000000000000000000000000000000000000000000000000000000000000000000000000000000000000000000000000000000000000000000000000000000000000000000000000000000000000000000000000000000000000000000000000000000000000000000000
310
00000000000000000000000000000000000000000000000000000000000000000000000000000000000000000000000000000000000000000000000000000000000000000000000000000000000000000000000000000000000000000000000000002D00000000000000000000000000000000000000000000000000000000
310
000000000000000000000000000000000000000000000000002D2D2D2D2D2D2D2D00000000000000000000000000000000000000000000000000000000000000000000000000000000000000000000000000000000000000000000000000000000000000000000000000000000000000000000000000002D2D2D2D2D2D2D2D
310
2D000000000000000000000000000000000000000000000000000000000000000000000000002D2D2D2D2D2D2D2D2D0000000000000000000000000000000000000000000000000000000000000000000000000000000000000000002D2D2D2D2D2D2D2D2D0000000000000000000000000000000000000000000000000000
310
0000000000000000000000000000000000000000000000000000002D2D2D2D2D2D2D2D000000000000000000000000000000000000000000000000000000000000000000000000000000000000000000000000000000002D2D2D2D2D2D2D2D2D00000000000000000000000000000000000000000000000000000000000000
310
00000000000000000000000000000000000000000000000000000000000000000000000000000000000000000000000000000000000000000000000000000000000000000000000000000000000000000000000000000000000000000000000000000000000000000000000000000000000000000000000000000000000000
310
00000000000000000000000000000000000000000000000000000000000000000000000000000000000000000000000000000000000000000000000000000000000000000000000000000000000000000000000000000000000000000000000000000000000000000000000000000000000000000000000000000000000000
310
00000000000000000000000000000000000000000000000000000000000000000000000000000000000000000000000000000000000000000000000000000000000000000000000000000000000000000000000000000000000000000000000000000000000000000000000000000000000000000000000000000000000000
310
00000000000000000000000000000000000000000000000000000000000000000000000000000000000000000000000000000000000000000000000000000000000000000000000000000000000000000000000000000000000000000000000000000000000000000000000000000000000000000000000000000000000000
310
00000000000000000000000000000000000000000000000000000000000000000000000000000000000000000000000000000000000000000000000000000000000000000000000000000000000000000000000000000000000000000000000000000000000000000000000000000000000000000000000000000000000000
310
00000000000000000000000000000000000000000000000000000000000000000000000000000000000000000000000000000000000000000000000000000000000000000000000000000000000000000000000000000000000000000000000000000000000000000000000000000000000000000000000000000000000000
310
00000000000000000000000000000000000000000000000000000000000000000000000000000000000000000000000000000000000000000000000000000000000000000000000000000000000000000000000000000000000000000000000000000000000000000000000000000000000000000000000000000000000000
310
00000000000000000000000000000000000000000000000000000000000000000000000000000000000000000000000000000000000000000000000000000000000000000000000000000000000000000000000000000000000000000000000000000000000000000000000000000000000000000000000000000000000000
310
00000000000000000000000000000000000000000000000000000000000000000000000000000000000000000000000000000000000000000000000000000000000000000000000000000000000000000000000000000000000000000000000000000000000000000000000000000000000000000000000000000000000000
310
00000000000000000000000000000000000000000000000000000000000000000000000000000000000000000000000000000000000000000000000000000000000000000000000000000000000000000000000000000000000000000000000000000000000000000000000000000000000000000000000000000000000000
310
00000000000000000000000000000000000000000000000000000000000000000000000000000000000000000000000000000000000000000000000000000000000000000000000000000000000000000000000000000000000000000000000000000000000000000000000000000000000000000000000000000000000000
310
00000000000000000000000000000000000000000000000000000000000000000000000000000000000000000000000000000000000000000000000000000000000000000000000000000000000000000000000000000000000000000000000000000000000000000000000000000000000000000000000000000000000000
310
00000000000000000000000000000000000000000000000000000000000000000000000000000000000000000000000000000000000000000000000000000000000000000000000000000000000000000000000000000000000000000000000000000000000000000000000000000000000000000000000000000000000000
310
00000000000000000000000000000000000000000000000000000000000000000000000000000000000000000000000000000000000000000000000000000000000000000000000000000000000000000000000000000000000000000000000000000000000000000000000000000000000000000000000000000000000000
310
00000000000000000000000000000000000000000000000000000000000000000000000000000000000000000000000000000000000000000000000000000000000000000000000000000000000000000000000000000000000000000000000000000000000000000000000000000000000000000000000000000000000000
310
00000000000000000000000000000000000000000000000000000000000000000000000000000000000000000000000000000000000000000000000000000000000000000000000000000000000000000000000000000000000000000000000000000000000000000000000000000000000000000000000000000000000000
310
00000000000000000000000000000000000000000000000000000000000000000000000000000000000000000000000000000000000000000000000000000000000000000000000000000000000000000000000000000000000000000000000000000000000000000000000000000000000000000000000000000000000000
310
00000000000000000000000000000000000000000000000000000000000000000000000000000000000000000000000000000000000000000000000000000000000000000000000000000000000000000000000000000000000000000000000000000000000000000000000000000000000000000000000000000000000000
310
00000000000000000000000000000000000000000000000000000000000000000000000000000000000000000000000000000000000000000000000000000000000000000000000000000000000000000000000000000000000000000000000000000000000000000000000000000000000000000000000000000000000000
310
00000000000000000000000000000000000000000000000000000000000000000000000000000000000000000000000000000000000000000000000000000000000000000000000000000000000000000000000000000000000000000000000000000000000000000000000000000000000000000000000000000000000000
310
00000000000000000000000000000000000000000000000000000000000000000000000000000000000000000000000000000000000000000000000000000000000000000000000000000000000000000000000000000000000000000000000000000000000000000000000000000000000000000000000000000000000000
310
00000000000000000000000000000000000000000000000000000000000000000000000000000000000000000000000000000000000000000000000000000000000000000000000000000000000000000000000000000000000000000000000000000000000000000000000000000000000000000000000000000000000000
310
00000000000000000000000000000000000000000000000000000000000000000000000000000000000000000000000000000000000000000000000000000000000000000000000000000000000000000000000000000000000000000000000000000000000000000000000000000000000000000000000000000000000000
310
00000000000000000000000000000000000000000000000000000000000000000000000000000000000000000000000000000000000000000000000000000000000000000000000000000000000000000000000000000000000000000000000000000000000000000000000000000000000000000000000000000000000000
310
00000000000000000000000000000000000000000000000000000000000000000000000000000000000000000000000000000000000000000000000000000000000000000000000000000000000000000000000000000000000000000000000000000000000000000000000000000000000000000000000000000000000000
310
00000000000000000000000000000000000000000000000000000000000000000000000000000000000000000000000000000000000000000000000000000000000000000000000000000000000000000000000000000000000000000000000000000000000000000000000000000000000000000000000000000000000000
310
00000000000000000000000000000000000000000000000000000000000000000000000000000000000000000000000000000000000000000000000000000000000000000000000000000000000000000000000000000000000000000000000000000000000000000000000000000000000000000000000000000000000000
310
00000000000000000000000000000000000000000000000000000000000000000000000000000000000000000000000000000000000000000000000000000000000000000000000000000000000000000000000000000000000000000000000000000000000000000000000000000000000000000000000000000000000000
310
00000000000000000000000000000000000000000000000000000000000000000000000000000000000000000000000000000000000000000000000000000000000000000000000000000000000000000000000000000000000000000000000000000000000000000000000000000000000000000000000000000000000000
310
00000000000000000000000000000000000000000000000000000000000000000000000000000000000000000000000000000000000000000000000000000000000000000000000000000000000000000000000000000000000000000000000000000000000000000000000000000000000000000000000000000000000000
310
00000000000000000000000000000000000000000000000000000000000000000000000000000000000000000000000000000000000000000000000000000000000000000000000000000000000000000000000000000000000000000000000000000000000000000000000000000000000000000000000000000000000000
310
00000000000000000000000000000000000000000000000000000000000000000000000000000000000000000000000000000000000000000000000000000000000000000000000000000000000000000000000000000000000000000000000000000000000000000000000000000000000000000000000000000000000000
310
00000000000000000000000000000000000000000000000000000000000000000000000000000000000000000000000000000000000000000000000000000000000000000000000000000000000000000000000000000000000000000000000000000000000000000000000000000000000000000000000000000000000000
310
00000000000000000000000000000000000000000000000000000000000000000000000000000000000000000000000000000000000000000000000000000000000000000000000000000000000000000000000000000000000000000000000000000000000000000000000000000000000000000000000000000000000000
310
00000000000000000000000000000000000000000000000000000000000000000000000000000000000000000000000000000000000000000000000000000000000000000000000000000000000000000000000000000000000000000000000000000000000000000000000000000000000000000000000000000000000000
310
00000000000000000000000000000000000000000000000000000000000000000000000000000000000000000000000000000000000000000000000000000000000000000000000000000000000000000000000000000000000000000000000000000000000000000000000000000000000000000000000000000000000000
310
00000000000000000000000000000000000000000000000000000000000000000000000000000000000000000000000000000000000000000000000000000000000000000000000000000000000000000000000000000000000000000000000000000000000000000000000000000000000000000000000000000000000000
310
00000000000000000000000000000000000000000000000000000000000000000000000000000000000000000000000000000000000000000000000000000000000000000000000000000000000000000000000000000000000000000000000000000000000000000000000000000000000000000000000000000000000000
310
00000000000000000000000000000000000000000000000000000000000000000000000000000000000000000000000000000000000000000000000000000000000000000000000000000000000000000000000000000000000000000000000000000000000000000000000000000000000000000000000000000000000000
310
00000000000000000000000000000000000000000000000000000000000000000000000000000000000000000000000000000000000000000000000000000000000000000000000000000000000000000000000000000000000000000000000000000000000000000000000000000000000000000000000000000000000000
310
00000000000000000000000000000000000000000000000000000000000000000000000000000000000000000000000000000000000000000000000000000000000000000000000000000000000000000000000000000000000000000000000000000000000000000000000000000000000000000000000000000000000000
310
00000000000000000000000000000000000000000000000000000000000000000000000000000000000000000000000000000000000000000000000000000000000000000000000000000000000000000000000000000000000000000000000000000000000000000000000000000000000000000000000000000000000000
310
00000000000000000000000000000000000000000000000000000000000000000000000000000000000000000000000000000000000000000000000000000000000000000000000000000000000000000000000000000000000000000000000000000000000000000000000000000000000000000000000000000000000000
310
00000000000000000000000000000000000000000000000000000000000000000000000000000000000000000000000000000000000000000000000000000000000000000000000000000000000000000000000000000000000000000000000000000000000000000000000000000000000000000000000000000000000000
310
00000000000000000000000000000000000000000000000000000000000000000000000000000000000000000000000000000000000000000000000000000000000000000000000000000000000000000000000000000000000000000000000000000000000000000000000000000000000000000000000000000000000000
310
00000000000000000000000000000000000000000000000000000000000000000000000000000000000000000000000000000000000000000000000000000000000000000000000000000000000000000000000000000000000000000000000000000000000000000000000000000000000000000000000000000000000000
310
00000000000000000000000000000000000000000000000000000000000000000000000000000000000000000000000000000000000000000000000000000000000000000000000000000000000000000000000000000000000000000000000000000000000000000000000000000000000000000000000000000000000000
310
00000000000000000000000000000000000000000000000000000000000000000000000000000000000000000000000000000000000000000000000000000000000000000000000000000000000000000000000000000000000000000000000000000000000000000000000000000000000000000000000000000000000000
310
0000000000000000000000000000000000000000000000000000000000000000
  0
XRECORD
  5
28E80
102
{ACAD_REACTORS
330
24D00
102
}
330
24D00
100
AcDbXrecord
280
     1
102
MATERIAL
148
0.0
149
0.0
149
0.0
 93
        0
 94
      127
282
     0
 72
     0
 77
     0
171
     0
175
     0
179
     0
273
     0
  0
XRECORD
  5
24D02
102
{ACAD_REACTORS
330
24D00
102
}
330
24D00
100
AcDbXrecord
280
     1
270
     1
271
     1
  0
XRECORD
  5
24D01
102
{ACAD_REACTORS
330
24D00
102
}
330
24D00
100
AcDbXrecord
280
     1
270
     1
271
     1
  0
XRECORD
  5
24D05
102
{ACAD_REACTORS
330
24D00
102
}
330
24D00
100
AcDbXrecord
280
     1
270
     1
271
     1
  0
XRECORD
  5
24D04
102
{ACAD_REACTORS
330
24D00
102
}
330
24D00
100
AcDbXrecord
280
     1
270
     1
271
     1
  0
XRECORD
  5
24D06
102
{ACAD_REACTORS
330
24D00
102
}
330
24D00
100
AcDbXrecord
280
     1
270
     1
271
     1
  0
XRECORD
  5
24D03
102
{ACAD_REACTORS
330
24D00
102
}
330
24D00
100
AcDbXrecord
280
     1
270
     1
271
     1
  0
XRECORD
  5
28E7F
102
{ACAD_REACTORS
330
24CF8
102
}
330
24CF8
100
AcDbXrecord
280
     1
102
MATERIAL
148
0.0
149
0.0
149
0.0
 93
        0
 94
      127
282
     0
 72
     0
 77
     0
171
     0
175
     0
179
     0
273
     0
  0
XRECORD
  5
24CFA
102
{ACAD_REACTORS
330
24CF8
102
}
330
24CF8
100
AcDbXrecord
280
     1
270
     1
271
     1
  0
XRECORD
  5
24CF9
102
{ACAD_REACTORS
330
24CF8
102
}
330
24CF8
100
AcDbXrecord
280
     1
270
     1
271
     1
  0
XRECORD
  5
24CFD
102
{ACAD_REACTORS
330
24CF8
102
}
330
24CF8
100
AcDbXrecord
280
     1
270
     1
271
     1
  0
XRECORD
  5
24CFC
102
{ACAD_REACTORS
330
24CF8
102
}
330
24CF8
100
AcDbXrecord
280
     1
270
     1
271
     1
  0
XRECORD
  5
24CFE
102
{ACAD_REACTORS
330
24CF8
102
}
330
24CF8
100
AcDbXrecord
280
     1
270
     1
271
     1
  0
XRECORD
  5
24CFB
102
{ACAD_REACTORS
330
24CF8
102
}
330
24CF8
100
AcDbXrecord
280
     1
270
     1
271
     1
  0
XRECORD
  5
28E81
102
{ACAD_REACTORS
330
24D08
102
}
330
24D08
100
AcDbXrecord
280
     1
102
MATERIAL
148
0.0
149
0.0
149
0.0
 93
        0
 94
      127
282
     0
 72
     0
 77
     0
171
     0
175
     0
179
     0
273
     0
  0
XRECORD
  5
24D0A
102
{ACAD_REACTORS
330
24D08
102
}
330
24D08
100
AcDbXrecord
280
     1
270
     1
271
     1
  0
XRECORD
  5
24D09
102
{ACAD_REACTORS
330
24D08
102
}
330
24D08
100
AcDbXrecord
280
     1
270
     1
271
     1
  0
XRECORD
  5
24D0D
102
{ACAD_REACTORS
330
24D08
102
}
330
24D08
100
AcDbXrecord
280
     1
270
     1
271
     1
  0
XRECORD
  5
24D0C
102
{ACAD_REACTORS
330
24D08
102
}
330
24D08
100
AcDbXrecord
280
     1
270
     1
271
     1
  0
XRECORD
  5
24D0E
102
{ACAD_REACTORS
330
24D08
102
}
330
24D08
100
AcDbXrecord
280
     1
270
     1
271
     1
  0
XRECORD
  5
24D0B
102
{ACAD_REACTORS
330
24D08
102
}
330
24D08
100
AcDbXrecord
280
     1
270
     1
271
     1
  0
CELLSTYLEMAP
  5
2909B
102
{ACAD_REACTORS
330
28E7B
102
}
330
28E7B
100
AcDbCellStyleMap
 90
        3
300
CELLSTYLE
  1
TABLEFORMAT_BEGIN
 90
        5
170
     1
 91
        0
 92
    32768
 62
   257
 93
        1
300
CONTENTFORMAT
  1
CONTENTFORMAT_BEGIN
 90
        0
 91
        0
 92
        4
 93
        0
300

 40
0.0
140
1.0
 94
        5
 62
     0
340
11
144
0.25
309
CONTENTFORMAT_END
171
     1
301
MARGIN
  1
CELLMARGIN_BEGIN
 40
0.06
 40
0.06
 40
0.06
 40
0.06
 40
0.18
 40
0.18
309
CELLMARGIN_END
 94
        6
 95
        1
302
GRIDFORMAT
  1
GRIDFORMAT_BEGIN
 90
        0
 91
        1
 62
     0
 92
       -2
340
0
 93
        0
 40
0.045
309
GRIDFORMAT_END
 95
        2
302
GRIDFORMAT
  1
GRIDFORMAT_BEGIN
 90
        0
 91
        1
 62
     0
 92
       -2
340
0
 93
        0
 40
0.045
309
GRIDFORMAT_END
 95
        4
302
GRIDFORMAT
  1
GRIDFORMAT_BEGIN
 90
        0
 91
        1
 62
     0
 92
       -2
340
0
 93
        0
 40
0.045
309
GRIDFORMAT_END
 95
        8
302
GRIDFORMAT
  1
GRIDFORMAT_BEGIN
 90
        0
 91
        1
 62
     0
 92
       -2
340
0
 93
        0
 40
0.045
309
GRIDFORMAT_END
 95
       16
302
GRIDFORMAT
  1
GRIDFORMAT_BEGIN
 90
        0
 91
        1
 62
     0
 92
       -2
340
0
 93
        0
 40
0.045
309
GRIDFORMAT_END
 95
       32
302
GRIDFORMAT
  1
GRIDFORMAT_BEGIN
 90
        0
 91
        1
 62
     0
 92
       -2
340
0
 93
        0
 40
0.045
309
GRIDFORMAT_END
309
TABLEFORMAT_END
  1
CELLSTYLE_BEGIN
 90
        1
 91
        1
300
_TITLE
309
CELLSTYLE_END
300
CELLSTYLE
  1
TABLEFORMAT_BEGIN
 90
        5
170
     1
 91
        0
 92
        0
 62
   257
 93
        1
300
CONTENTFORMAT
  1
CONTENTFORMAT_BEGIN
 90
        0
 91
        0
 92
        4
 93
        0
300

 40
0.0
140
1.0
 94
        5
 62
     0
340
11
144
0.18
309
CONTENTFORMAT_END
171
     1
301
MARGIN
  1
CELLMARGIN_BEGIN
 40
0.06
 40
0.06
 40
0.06
 40
0.06
 40
0.18
 40
0.18
309
CELLMARGIN_END
 94
        6
 95
        1
302
GRIDFORMAT
  1
GRIDFORMAT_BEGIN
 90
        0
 91
        1
 62
     0
 92
       -2
340
0
 93
        0
 40
0.045
309
GRIDFORMAT_END
 95
        2
302
GRIDFORMAT
  1
GRIDFORMAT_BEGIN
 90
        0
 91
        1
 62
     0
 92
       -2
340
0
 93
        0
 40
0.045
309
GRIDFORMAT_END
 95
        4
302
GRIDFORMAT
  1
GRIDFORMAT_BEGIN
 90
        0
 91
        1
 62
     0
 92
       -2
340
0
 93
        0
 40
0.045
309
GRIDFORMAT_END
 95
        8
302
GRIDFORMAT
  1
GRIDFORMAT_BEGIN
 90
        0
 91
        1
 62
     0
 92
       -2
340
0
 93
        0
 40
0.045
309
GRIDFORMAT_END
 95
       16
302
GRIDFORMAT
  1
GRIDFORMAT_BEGIN
 90
        0
 91
        1
 62
     0
 92
       -2
340
0
 93
        0
 40
0.045
309
GRIDFORMAT_END
 95
       32
302
GRIDFORMAT
  1
GRIDFORMAT_BEGIN
 90
        0
 91
        1
 62
     0
 92
       -2
340
0
 93
        0
 40
0.045
309
GRIDFORMAT_END
309
TABLEFORMAT_END
  1
CELLSTYLE_BEGIN
 90
        2
 91
        1
300
_HEADER
309
CELLSTYLE_END
300
CELLSTYLE
  1
TABLEFORMAT_BEGIN
 90
        5
170
     1
 91
        0
 92
        0
 62
   257
 93
        1
300
CONTENTFORMAT
  1
CONTENTFORMAT_BEGIN
 90
        0
 91
        0
 92
        4
 93
        0
300

 40
0.0
140
1.0
 94
        2
 62
     0
340
11
144
0.18
309
CONTENTFORMAT_END
171
     1
301
MARGIN
  1
CELLMARGIN_BEGIN
 40
0.06
 40
0.06
 40
0.06
 40
0.06
 40
0.18
 40
0.18
309
CELLMARGIN_END
 94
        6
 95
        1
302
GRIDFORMAT
  1
GRIDFORMAT_BEGIN
 90
        0
 91
        1
 62
     0
 92
       -2
340
0
 93
        0
 40
0.045
309
GRIDFORMAT_END
 95
        2
302
GRIDFORMAT
  1
GRIDFORMAT_BEGIN
 90
        0
 91
        1
 62
     0
 92
       -2
340
0
 93
        0
 40
0.045
309
GRIDFORMAT_END
 95
        4
302
GRIDFORMAT
  1
GRIDFORMAT_BEGIN
 90
        0
 91
        1
 62
     0
 92
       -2
340
0
 93
        0
 40
0.045
309
GRIDFORMAT_END
 95
        8
302
GRIDFORMAT
  1
GRIDFORMAT_BEGIN
 90
        0
 91
        1
 62
     0
 92
       -2
340
0
 93
        0
 40
0.045
309
GRIDFORMAT_END
 95
       16
302
GRIDFORMAT
  1
GRIDFORMAT_BEGIN
 90
        0
 91
        1
 62
     0
 92
       -2
340
0
 93
        0
 40
0.045
309
GRIDFORMAT_END
 95
       32
302
GRIDFORMAT
  1
GRIDFORMAT_BEGIN
 90
        0
 91
        1
 62
     0
 92
       -2
340
0
 93
        0
 40
0.045
309
GRIDFORMAT_END
309
TABLEFORMAT_END
  1
CELLSTYLE_BEGIN
 90
        3
 91
        2
300
_DATA
309
CELLSTYLE_END
  0
XRECORD
  5
2909D
102
{ACAD_REACTORS
330
28E7B
102
}
330
28E7B
100
AcDbXrecord
280
     1
102
ACAD_ROUNDTRIP_PRE2007_TABLESTYLE
 90
        4
 91
        0
  1

 92
        4
 93
        0
  2

 94
        4
 95
        0
  3

  0
XRECORD
  5
290A9
102
{ACAD_REACTORS
330
290A8
102
}
330
290A8
100
AcDbXrecord
280
     1
102
RTVSPropertyOp0
 70
     1
102
RTVSPropertyOp1
 70
     1
102
RTVSPropertyOp2
 70
     1
102
RTVSPropertyOp3
 70
     1
102
RTVSPropertyOp4
 70
     1
102
RTVSPropertyOp5
 70
     1
102
RTVSPropertyOp6
 70
     1
102
RTVSPropertyOp7
 70
     1
102
RTVSPropertyOp8
 70
     1
102
RTVSPropertyOp9
 70
     1
102
RTVSPropertyOp10
 70
     1
102
RTVSPropertyOp11
 70
     1
102
RTVSPropertyOp12
 70
     1
102
RTVSPropertyOp13
 70
     1
102
RTVSPropertyOp14
 70
     1
102
RTVSPropertyOp15
 70
     1
102
RTVSPropertyOp16
 70
     1
102
RTVSPropertyOp17
 70
     1
102
RTVSPropertyOp18
 70
     1
102
RTVSPropertyOp19
 70
     1
102
RTVSPropertyOp20
 70
     1
102
RTVSPropertyOp21
 70
     1
102
RTVSPropertyOp22
 70
     1
102
RTVSPropertyOp23
 70
     1
102
RTVSPropertyOp24
 70
     1
102
RTVSPropertyOp25
 70
     1
102
RTVSPropertyOp26
 70
     1
102
RTVSPropertyOp27
 70
     1
102
RTVSPropertyOp28
 70
     1
102
RTVSPropertyOp29
 70
     1
102
RTVSPropertyOp30
 70
     1
102
RTVSPropertyOp31
 70
     1
102
RTVSPropertyOp32
 70
     1
  0
XRECORD
  5
290A7
102
{ACAD_REACTORS
330
290A6
102
}
330
290A6
100
AcDbXrecord
280
     1
102
RTVSPropertyOp0
 70
     1
102
RTVSPropertyOp1
 70
     1
102
RTVSPropertyOp2
 70
     1
102
RTVSPropertyOp3
 70
     1
102
RTVSPropertyOp4
 70
     1
102
RTVSPropertyOp5
 70
     1
102
RTVSPropertyOp6
 70
     1
102
RTVSPropertyOp7
 70
     1
102
RTVSPropertyOp8
 70
     1
102
RTVSPropertyOp9
 70
     1
102
RTVSPropertyOp10
 70
     1
102
RTVSPropertyOp11
 70
     1
102
RTVSPropertyOp12
 70
     1
102
RTVSPropertyOp13
 70
     1
102
RTVSPropertyOp14
 70
     1
102
RTVSPropertyOp15
 70
     1
102
RTVSPropertyOp16
 70
     1
102
RTVSPropertyOp17
 70
     1
102
RTVSPropertyOp18
 70
     1
102
RTVSPropertyOp19
 70
     1
102
RTVSPropertyOp20
 70
     1
102
RTVSPropertyOp21
 70
     1
102
RTVSPropertyOp22
 70
     1
102
RTVSPropertyOp23
 70
     1
102
RTVSPropertyOp24
 70
     1
102
RTVSPropertyOp25
 70
     1
102
RTVSPropertyOp26
 70
     1
102
RTVSPropertyOp27
 70
     1
102
RTVSPropertyOp28
 70
     1
102
RTVSPropertyOp29
 70
     1
102
RTVSPropertyOp30
 70
     1
102
RTVSPropertyOp31
 70
     1
102
RTVSPropertyOp32
 70
     1
  0
XRECORD
  5
290B5
102
{ACAD_REACTORS
330
290B4
102
}
330
290B4
100
AcDbXrecord
280
     1
102
RTVSPropertyOp0
 70
     1
102
RTVSPropertyOp1
 70
     1
102
RTVSPropertyOp2
 70
     1
102
RTVSPropertyOp3
 70
     1
102
RTVSPropertyOp4
 70
     1
102
RTVSPropertyOp5
 70
     1
102
RTVSPropertyOp6
 70
     1
102
RTVSPropertyOp7
 70
     1
102
RTVSPropertyOp8
 70
     1
102
RTVSPropertyOp9
 70
     1
102
RTVSPropertyOp10
 70
     1
102
RTVSPropertyOp11
 70
     1
102
RTVSPropertyOp12
 70
     1
102
RTVSPropertyOp13
 70
     1
102
RTVSPropertyOp14
 70
     1
102
RTVSPropertyOp15
 70
     1
102
RTVSPropertyOp16
 70
     1
102
RTVSPropertyOp17
 70
     1
102
RTVSPropertyOp18
 70
     1
102
RTVSPropertyOp19
 70
     1
102
RTVSPropertyOp20
 70
     1
102
RTVSPropertyOp21
 70
     1
102
RTVSPropertyOp22
 70
     1
102
RTVSPropertyOp23
 70
     1
102
RTVSPropertyOp24
 70
     1
102
RTVSPropertyOp25
 70
     1
102
RTVSPropertyOp26
 70
     1
102
RTVSPropertyOp27
 70
     1
102
RTVSPropertyOp28
 70
     1
102
RTVSPropertyOp29
 70
     1
102
RTVSPropertyOp30
 70
     1
102
RTVSPropertyOp31
 70
     1
102
RTVSPropertyOp32
 70
     1
  0
XRECORD
  5
290BD
102
{ACAD_REACTORS
330
290BC
102
}
330
290BC
100
AcDbXrecord
280
     1
102
RTVSPropertyOp0
 70
     1
102
RTVSPropertyOp1
 70
     1
102
RTVSPropertyOp2
 70
     1
102
RTVSPropertyOp3
 70
     1
102
RTVSPropertyOp4
 70
     1
102
RTVSPropertyOp5
 70
     1
102
RTVSPropertyOp6
 70
     1
102
RTVSPropertyOp7
 70
     1
102
RTVSPropertyOp8
 70
     1
102
RTVSPropertyOp9
 70
     1
102
RTVSPropertyOp10
 70
     1
102
RTVSPropertyOp11
 70
     1
102
RTVSPropertyOp12
 70
     1
102
RTVSPropertyOp13
 70
     1
102
RTVSPropertyOp14
 70
     1
102
RTVSPropertyOp15
 70
     1
102
RTVSPropertyOp16
 70
     1
102
RTVSPropertyOp17
 70
     1
102
RTVSPropertyOp18
 70
     1
102
RTVSPropertyOp19
 70
     1
102
RTVSPropertyOp20
 70
     1
102
RTVSPropertyOp21
 70
     1
102
RTVSPropertyOp22
 70
     1
102
RTVSPropertyOp23
 70
     1
102
RTVSPropertyOp24
 70
     1
102
RTVSPropertyOp25
 70
     1
102
RTVSPropertyOp26
 70
     1
102
RTVSPropertyOp27
 70
     1
102
RTVSPropertyOp28
 70
     1
102
RTVSPropertyOp29
 70
     1
102
RTVSPropertyOp30
 70
     1
102
RTVSPropertyOp31
 70
     1
102
RTVSPropertyOp32
 70
     1
  0
XRECORD
  5
290AF
102
{ACAD_REACTORS
330
290AE
102
}
330
290AE
100
AcDbXrecord
280
     1
102
RTVSPropertyOp0
 70
     1
102
RTVSPropertyOp1
 70
     1
102
RTVSPropertyOp2
 70
     1
102
RTVSPropertyOp3
 70
     1
102
RTVSPropertyOp4
 70
     1
102
RTVSPropertyOp5
 70
     1
102
RTVSPropertyOp6
 70
     1
102
RTVSPropertyOp7
 70
     1
102
RTVSPropertyOp8
 70
     1
102
RTVSPropertyOp9
 70
     1
102
RTVSPropertyOp10
 70
     1
102
RTVSPropertyOp11
 70
     1
102
RTVSPropertyOp12
 70
     1
102
RTVSPropertyOp13
 70
     1
102
RTVSPropertyOp14
 70
     1
102
RTVSPropertyOp15
 70
     1
102
RTVSPropertyOp16
 70
     1
102
RTVSPropertyOp17
 70
     1
102
RTVSPropertyOp18
 70
     1
102
RTVSPropertyOp19
 70
     1
102
RTVSPropertyOp20
 70
     1
102
RTVSPropertyOp21
 70
     1
102
RTVSPropertyOp22
 70
     1
102
RTVSPropertyOp23
 70
     1
102
RTVSPropertyOp24
 70
     1
102
RTVSPropertyOp25
 70
     1
102
RTVSPropertyOp26
 70
     1
102
RTVSPropertyOp27
 70
     1
102
RTVSPropertyOp28
 70
     1
102
RTVSPropertyOp29
 70
     1
102
RTVSPropertyOp30
 70
     1
102
RTVSPropertyOp31
 70
     1
102
RTVSPropertyOp32
 70
     1
  0
XRECORD
  5
290B3
102
{ACAD_REACTORS
330
290B2
102
}
330
290B2
100
AcDbXrecord
280
     1
102
RTVSPropertyOp0
 70
     1
102
RTVSPropertyOp1
 70
     1
102
RTVSPropertyOp2
 70
     1
102
RTVSPropertyOp3
 70
     1
102
RTVSPropertyOp4
 70
     1
102
RTVSPropertyOp5
 70
     1
102
RTVSPropertyOp6
 70
     1
102
RTVSPropertyOp7
 70
     1
102
RTVSPropertyOp8
 70
     1
102
RTVSPropertyOp9
 70
     1
102
RTVSPropertyOp10
 70
     1
102
RTVSPropertyOp11
 70
     1
102
RTVSPropertyOp12
 70
     1
102
RTVSPropertyOp13
 70
     1
102
RTVSPropertyOp14
 70
     1
102
RTVSPropertyOp15
 70
     1
102
RTVSPropertyOp16
 70
     1
102
RTVSPropertyOp17
 70
     1
102
RTVSPropertyOp18
 70
     1
102
RTVSPropertyOp19
 70
     1
102
RTVSPropertyOp20
 70
     1
102
RTVSPropertyOp21
 70
     1
102
RTVSPropertyOp22
 70
     1
102
RTVSPropertyOp23
 70
     1
102
RTVSPropertyOp24
 70
     1
102
RTVSPropertyOp25
 70
     1
102
RTVSPropertyOp26
 70
     1
102
RTVSPropertyOp27
 70
     1
102
RTVSPropertyOp28
 70
     1
102
RTVSPropertyOp29
 70
     1
102
RTVSPropertyOp30
 70
     1
102
RTVSPropertyOp31
 70
     1
102
RTVSPropertyOp32
 70
     1
  0
XRECORD
  5
290CD
102
{ACAD_REACTORS
330
290CC
102
}
330
290CC
100
AcDbXrecord
280
     1
102
RTVSPropertyOp0
 70
     0
102
RTVSPropertyOp1
 70
     0
102
RTVSPropertyOp2
 70
     0
102
RTVSPropertyOp3
 70
     0
102
RTVSPropertyOp4
 70
     0
102
RTVSPropertyOp5
 70
     0
102
RTVSPropertyOp6
 70
     0
102
RTVSPropertyOp7
 70
     0
102
RTVSPropertyOp8
 70
     0
102
RTVSPropertyOp9
 70
     0
102
RTVSPropertyOp10
 70
     0
102
RTVSPropertyOp11
 70
     0
102
RTVSPropertyOp12
 70
     0
102
RTVSPropertyOp13
 70
     0
102
RTVSPropertyOp14
 70
     2
102
RTVSPropertyOp15
 70
     0
102
RTVSPropertyOp16
 70
     0
102
RTVSPropertyOp17
 70
     0
102
RTVSPropertyOp18
 70
     0
102
RTVSPropertyOp19
 70
     0
102
RTVSPropertyOp20
 70
     0
102
RTVSPropertyOp21
 70
     0
102
RTVSPropertyOp22
 70
     0
102
RTVSPropertyOp23
 70
     0
102
RTVSPropertyOp24
 70
     0
102
RTVSPropertyOp25
 70
     0
102
RTVSPropertyOp26
 70
     0
102
RTVSPropertyOp27
 70
     0
102
RTVSPropertyOp28
 70
     0
102
RTVSPropertyOp29
 70
     0
102
RTVSPropertyOp30
 70
     0
102
RTVSPropertyOp31
 70
     0
102
RTVSPropertyOp32
 70
     0
  0
XRECORD
  5
290BB
102
{ACAD_REACTORS
330
290BA
102
}
330
290BA
100
AcDbXrecord
280
     1
102
RTVSPropertyOp0
 70
     1
102
RTVSPropertyOp1
 70
     1
102
RTVSPropertyOp2
 70
     1
102
RTVSPropertyOp3
 70
     1
102
RTVSPropertyOp4
 70
     1
102
RTVSPropertyOp5
 70
     1
102
RTVSPropertyOp6
 70
     1
102
RTVSPropertyOp7
 70
     1
102
RTVSPropertyOp8
 70
     1
102
RTVSPropertyOp9
 70
     1
102
RTVSPropertyOp10
 70
     1
102
RTVSPropertyOp11
 70
     1
102
RTVSPropertyOp12
 70
     1
102
RTVSPropertyOp13
 70
     1
102
RTVSPropertyOp14
 70
     1
102
RTVSPropertyOp15
 70
     1
102
RTVSPropertyOp16
 70
     1
102
RTVSPropertyOp17
 70
     1
102
RTVSPropertyOp18
 70
     1
102
RTVSPropertyOp19
 70
     1
102
RTVSPropertyOp20
 70
     1
102
RTVSPropertyOp21
 70
     1
102
RTVSPropertyOp22
 70
     1
102
RTVSPropertyOp23
 70
     1
102
RTVSPropertyOp24
 70
     1
102
RTVSPropertyOp25
 70
     1
102
RTVSPropertyOp26
 70
     1
102
RTVSPropertyOp27
 70
     1
102
RTVSPropertyOp28
 70
     1
102
RTVSPropertyOp29
 70
     1
102
RTVSPropertyOp30
 70
     1
102
RTVSPropertyOp31
 70
     1
102
RTVSPropertyOp32
 70
     1
  0
XRECORD
  5
2909F
102
{ACAD_REACTORS
330
2909E
102
}
330
2909E
100
AcDbXrecord
280
     1
102
RTVSPropertyOp0
 70
     1
102
RTVSPropertyOp1
 70
     1
102
RTVSPropertyOp2
 70
     1
102
RTVSPropertyOp3
 70
     1
102
RTVSPropertyOp4
 70
     1
102
RTVSPropertyOp5
 70
     1
102
RTVSPropertyOp6
 70
     1
102
RTVSPropertyOp7
 70
     1
102
RTVSPropertyOp8
 70
     1
102
RTVSPropertyOp9
 70
     1
102
RTVSPropertyOp10
 70
     1
102
RTVSPropertyOp11
 70
     1
102
RTVSPropertyOp12
 70
     1
102
RTVSPropertyOp13
 70
     1
102
RTVSPropertyOp14
 70
     1
102
RTVSPropertyOp15
 70
     1
102
RTVSPropertyOp16
 70
     1
102
RTVSPropertyOp17
 70
     1
102
RTVSPropertyOp18
 70
     1
102
RTVSPropertyOp19
 70
     1
102
RTVSPropertyOp20
 70
     1
102
RTVSPropertyOp21
 70
     1
102
RTVSPropertyOp22
 70
     1
102
RTVSPropertyOp23
 70
     1
102
RTVSPropertyOp24
 70
     1
102
RTVSPropertyOp25
 70
     1
102
RTVSPropertyOp26
 70
     1
102
RTVSPropertyOp27
 70
     1
102
RTVSPropertyOp28
 70
     1
102
RTVSPropertyOp29
 70
     1
102
RTVSPropertyOp30
 70
     1
102
RTVSPropertyOp31
 70
     1
102
RTVSPropertyOp32
 70
     1
  0
XRECORD
  5
290A1
102
{ACAD_REACTORS
330
290A0
102
}
330
290A0
100
AcDbXrecord
280
     1
102
RTVSPropertyOp0
 70
     1
102
RTVSPropertyOp1
 70
     1
102
RTVSPropertyOp2
 70
     1
102
RTVSPropertyOp3
 70
     1
102
RTVSPropertyOp4
 70
     1
102
RTVSPropertyOp5
 70
     1
102
RTVSPropertyOp6
 70
     1
102
RTVSPropertyOp7
 70
     1
102
RTVSPropertyOp8
 70
     1
102
RTVSPropertyOp9
 70
     1
102
RTVSPropertyOp10
 70
     1
102
RTVSPropertyOp11
 70
     1
102
RTVSPropertyOp12
 70
     1
102
RTVSPropertyOp13
 70
     1
102
RTVSPropertyOp14
 70
     1
102
RTVSPropertyOp15
 70
     1
102
RTVSPropertyOp16
 70
     1
102
RTVSPropertyOp17
 70
     1
102
RTVSPropertyOp18
 70
     1
102
RTVSPropertyOp19
 70
     1
102
RTVSPropertyOp20
 70
     1
102
RTVSPropertyOp21
 70
     1
102
RTVSPropertyOp22
 70
     1
102
RTVSPropertyOp23
 70
     1
102
RTVSPropertyOp24
 70
     1
102
RTVSPropertyOp25
 70
     1
102
RTVSPropertyOp26
 70
     1
102
RTVSPropertyOp27
 70
     1
102
RTVSPropertyOp28
 70
     1
102
RTVSPropertyOp29
 70
     1
102
RTVSPropertyOp30
 70
     1
102
RTVSPropertyOp31
 70
     1
102
RTVSPropertyOp32
 70
     1
  0
XRECORD
  5
290A3
102
{ACAD_REACTORS
330
290A2
102
}
330
290A2
100
AcDbXrecord
280
     1
102
RTVSPropertyOp0
 70
     1
102
RTVSPropertyOp1
 70
     1
102
RTVSPropertyOp2
 70
     1
102
RTVSPropertyOp3
 70
     1
102
RTVSPropertyOp4
 70
     1
102
RTVSPropertyOp5
 70
     1
102
RTVSPropertyOp6
 70
     1
102
RTVSPropertyOp7
 70
     1
102
RTVSPropertyOp8
 70
     1
102
RTVSPropertyOp9
 70
     1
102
RTVSPropertyOp10
 70
     1
102
RTVSPropertyOp11
 70
     1
102
RTVSPropertyOp12
 70
     1
102
RTVSPropertyOp13
 70
     1
102
RTVSPropertyOp14
 70
     1
102
RTVSPropertyOp15
 70
     1
102
RTVSPropertyOp16
 70
     1
102
RTVSPropertyOp17
 70
     1
102
RTVSPropertyOp18
 70
     1
102
RTVSPropertyOp19
 70
     1
102
RTVSPropertyOp20
 70
     1
102
RTVSPropertyOp21
 70
     1
102
RTVSPropertyOp22
 70
     1
102
RTVSPropertyOp23
 70
     1
102
RTVSPropertyOp24
 70
     1
102
RTVSPropertyOp25
 70
     1
102
RTVSPropertyOp26
 70
     1
102
RTVSPropertyOp27
 70
     1
102
RTVSPropertyOp28
 70
     1
102
RTVSPropertyOp29
 70
     1
102
RTVSPropertyOp30
 70
     1
102
RTVSPropertyOp31
 70
     1
102
RTVSPropertyOp32
 70
     1
  0
XRECORD
  5
290A5
102
{ACAD_REACTORS
330
290A4
102
}
330
290A4
100
AcDbXrecord
280
     1
102
RTVSPropertyOp0
 70
     1
102
RTVSPropertyOp1
 70
     1
102
RTVSPropertyOp2
 70
     1
102
RTVSPropertyOp3
 70
     1
102
RTVSPropertyOp4
 70
     1
102
RTVSPropertyOp5
 70
     1
102
RTVSPropertyOp6
 70
     1
102
RTVSPropertyOp7
 70
     1
102
RTVSPropertyOp8
 70
     1
102
RTVSPropertyOp9
 70
     1
102
RTVSPropertyOp10
 70
     1
102
RTVSPropertyOp11
 70
     1
102
RTVSPropertyOp12
 70
     1
102
RTVSPropertyOp13
 70
     1
102
RTVSPropertyOp14
 70
     1
102
RTVSPropertyOp15
 70
     1
102
RTVSPropertyOp16
 70
     1
102
RTVSPropertyOp17
 70
     1
102
RTVSPropertyOp18
 70
     1
102
RTVSPropertyOp19
 70
     1
102
RTVSPropertyOp20
 70
     1
102
RTVSPropertyOp21
 70
     1
102
RTVSPropertyOp22
 70
     1
102
RTVSPropertyOp23
 70
     1
102
RTVSPropertyOp24
 70
     1
102
RTVSPropertyOp25
 70
     1
102
RTVSPropertyOp26
 70
     1
102
RTVSPropertyOp27
 70
     1
102
RTVSPropertyOp28
 70
     1
102
RTVSPropertyOp29
 70
     1
102
RTVSPropertyOp30
 70
     1
102
RTVSPropertyOp31
 70
     1
102
RTVSPropertyOp32
 70
     1
  0
XRECORD
  5
290AD
102
{ACAD_REACTORS
330
290AC
102
}
330
290AC
100
AcDbXrecord
280
     1
102
RTVSPropertyOp0
 70
     1
102
RTVSPropertyOp1
 70
     1
102
RTVSPropertyOp2
 70
     1
102
RTVSPropertyOp3
 70
     1
102
RTVSPropertyOp4
 70
     1
102
RTVSPropertyOp5
 70
     1
102
RTVSPropertyOp6
 70
     1
102
RTVSPropertyOp7
 70
     1
102
RTVSPropertyOp8
 70
     1
102
RTVSPropertyOp9
 70
     1
102
RTVSPropertyOp10
 70
     1
102
RTVSPropertyOp11
 70
     1
102
RTVSPropertyOp12
 70
     1
102
RTVSPropertyOp13
 70
     1
102
RTVSPropertyOp14
 70
     1
102
RTVSPropertyOp15
 70
     1
102
RTVSPropertyOp16
 70
     1
102
RTVSPropertyOp17
 70
     1
102
RTVSPropertyOp18
 70
     1
102
RTVSPropertyOp19
 70
     1
102
RTVSPropertyOp20
 70
     1
102
RTVSPropertyOp21
 70
     1
102
RTVSPropertyOp22
 70
     1
102
RTVSPropertyOp23
 70
     1
102
RTVSPropertyOp24
 70
     1
102
RTVSPropertyOp25
 70
     1
102
RTVSPropertyOp26
 70
     1
102
RTVSPropertyOp27
 70
     1
102
RTVSPropertyOp28
 70
     1
102
RTVSPropertyOp29
 70
     1
102
RTVSPropertyOp30
 70
     1
102
RTVSPropertyOp31
 70
     1
102
RTVSPropertyOp32
 70
     1
  0
XRECORD
  5
290C9
102
{ACAD_REACTORS
330
290C8
102
}
330
290C8
100
AcDbXrecord
280
     1
102
RTVSPropertyOp0
 70
     0
102
RTVSPropertyOp1
 70
     0
102
RTVSPropertyOp2
 70
     0
102
RTVSPropertyOp3
 70
     0
102
RTVSPropertyOp4
 70
     0
102
RTVSPropertyOp5
 70
     0
102
RTVSPropertyOp6
 70
     0
102
RTVSPropertyOp7
 70
     0
102
RTVSPropertyOp8
 70
     0
102
RTVSPropertyOp9
 70
     0
102
RTVSPropertyOp10
 70
     0
102
RTVSPropertyOp11
 70
     0
102
RTVSPropertyOp12
 70
     0
102
RTVSPropertyOp13
 70
     0
102
RTVSPropertyOp14
 70
     2
102
RTVSPropertyOp15
 70
     0
102
RTVSPropertyOp16
 70
     0
102
RTVSPropertyOp17
 70
     0
102
RTVSPropertyOp18
 70
     0
102
RTVSPropertyOp19
 70
     0
102
RTVSPropertyOp20
 70
     0
102
RTVSPropertyOp21
 70
     0
102
RTVSPropertyOp22
 70
     0
102
RTVSPropertyOp23
 70
     0
102
RTVSPropertyOp24
 70
     0
102
RTVSPropertyOp25
 70
     0
102
RTVSPropertyOp26
 70
     0
102
RTVSPropertyOp27
 70
     0
102
RTVSPropertyOp28
 70
     0
102
RTVSPropertyOp29
 70
     0
102
RTVSPropertyOp30
 70
     0
102
RTVSPropertyOp31
 70
     0
102
RTVSPropertyOp32
 70
     0
  0
XRECORD
  5
290B9
102
{ACAD_REACTORS
330
290B8
102
}
330
290B8
100
AcDbXrecord
280
     1
102
RTVSPropertyOp0
 70
     1
102
RTVSPropertyOp1
 70
     1
102
RTVSPropertyOp2
 70
     1
102
RTVSPropertyOp3
 70
     1
102
RTVSPropertyOp4
 70
     1
102
RTVSPropertyOp5
 70
     1
102
RTVSPropertyOp6
 70
     1
102
RTVSPropertyOp7
 70
     1
102
RTVSPropertyOp8
 70
     1
102
RTVSPropertyOp9
 70
     1
102
RTVSPropertyOp10
 70
     1
102
RTVSPropertyOp11
 70
     1
102
RTVSPropertyOp12
 70
     1
102
RTVSPropertyOp13
 70
     1
102
RTVSPropertyOp14
 70
     1
102
RTVSPropertyOp15
 70
     1
102
RTVSPropertyOp16
 70
     1
102
RTVSPropertyOp17
 70
     1
102
RTVSPropertyOp18
 70
     1
102
RTVSPropertyOp19
 70
     1
102
RTVSPropertyOp20
 70
     1
102
RTVSPropertyOp21
 70
     1
102
RTVSPropertyOp22
 70
     1
102
RTVSPropertyOp23
 70
     1
102
RTVSPropertyOp24
 70
     1
102
RTVSPropertyOp25
 70
     1
102
RTVSPropertyOp26
 70
     1
102
RTVSPropertyOp27
 70
     1
102
RTVSPropertyOp28
 70
     1
102
RTVSPropertyOp29
 70
     1
102
RTVSPropertyOp30
 70
     1
102
RTVSPropertyOp31
 70
     1
102
RTVSPropertyOp32
 70
     1
  0
XRECORD
  5
290CB
102
{ACAD_REACTORS
330
290CA
102
}
330
290CA
100
AcDbXrecord
280
     1
102
RTVSPropertyOp0
 70
     0
102
RTVSPropertyOp1
 70
     0
102
RTVSPropertyOp2
 70
     0
102
RTVSPropertyOp3
 70
     0
102
RTVSPropertyOp4
 70
     0
102
RTVSPropertyOp5
 70
     0
102
RTVSPropertyOp6
 70
     0
102
RTVSPropertyOp7
 70
     0
102
RTVSPropertyOp8
 70
     0
102
RTVSPropertyOp9
 70
     0
102
RTVSPropertyOp10
 70
     0
102
RTVSPropertyOp11
 70
     0
102
RTVSPropertyOp12
 70
     0
102
RTVSPropertyOp13
 70
     0
102
RTVSPropertyOp14
 70
     2
102
RTVSPropertyOp15
 70
     0
102
RTVSPropertyOp16
 70
     0
102
RTVSPropertyOp17
 70
     0
102
RTVSPropertyOp18
 70
     0
102
RTVSPropertyOp19
 70
     0
102
RTVSPropertyOp20
 70
     0
102
RTVSPropertyOp21
 70
     0
102
RTVSPropertyOp22
 70
     0
102
RTVSPropertyOp23
 70
     0
102
RTVSPropertyOp24
 70
     0
102
RTVSPropertyOp25
 70
     0
102
RTVSPropertyOp26
 70
     0
102
RTVSPropertyOp27
 70
     0
102
RTVSPropertyOp28
 70
     0
102
RTVSPropertyOp29
 70
     0
102
RTVSPropertyOp30
 70
     0
102
RTVSPropertyOp31
 70
     0
102
RTVSPropertyOp32
 70
     0
  0
XRECORD
  5
290B1
102
{ACAD_REACTORS
330
290B0
102
}
330
290B0
100
AcDbXrecord
280
     1
102
RTVSPropertyOp0
 70
     1
102
RTVSPropertyOp1
 70
     1
102
RTVSPropertyOp2
 70
     1
102
RTVSPropertyOp3
 70
     1
102
RTVSPropertyOp4
 70
     1
102
RTVSPropertyOp5
 70
     1
102
RTVSPropertyOp6
 70
     1
102
RTVSPropertyOp7
 70
     1
102
RTVSPropertyOp8
 70
     1
102
RTVSPropertyOp9
 70
     1
102
RTVSPropertyOp10
 70
     1
102
RTVSPropertyOp11
 70
     1
102
RTVSPropertyOp12
 70
     1
102
RTVSPropertyOp13
 70
     1
102
RTVSPropertyOp14
 70
     1
102
RTVSPropertyOp15
 70
     1
102
RTVSPropertyOp16
 70
     1
102
RTVSPropertyOp17
 70
     1
102
RTVSPropertyOp18
 70
     1
102
RTVSPropertyOp19
 70
     1
102
RTVSPropertyOp20
 70
     1
102
RTVSPropertyOp21
 70
     1
102
RTVSPropertyOp22
 70
     1
102
RTVSPropertyOp23
 70
     1
102
RTVSPropertyOp24
 70
     1
102
RTVSPropertyOp25
 70
     1
102
RTVSPropertyOp26
 70
     1
102
RTVSPropertyOp27
 70
     1
102
RTVSPropertyOp28
 70
     1
102
RTVSPropertyOp29
 70
     1
102
RTVSPropertyOp30
 70
     1
102
RTVSPropertyOp31
 70
     1
102
RTVSPropertyOp32
 70
     1
  0
XRECORD
  5
290C7
102
{ACAD_REACTORS
330
290C6
102
}
330
290C6
100
AcDbXrecord
280
     1
102
RTVSPropertyOp0
 70
     1
102
RTVSPropertyOp1
 70
     1
102
RTVSPropertyOp2
 70
     1
102
RTVSPropertyOp3
 70
     1
102
RTVSPropertyOp4
 70
     1
102
RTVSPropertyOp5
 70
     1
102
RTVSPropertyOp6
 70
     1
102
RTVSPropertyOp7
 70
     1
102
RTVSPropertyOp8
 70
     1
102
RTVSPropertyOp9
 70
     1
102
RTVSPropertyOp10
 70
     1
102
RTVSPropertyOp11
 70
     1
102
RTVSPropertyOp12
 70
     1
102
RTVSPropertyOp13
 70
     1
102
RTVSPropertyOp14
 70
     1
102
RTVSPropertyOp15
 70
     1
102
RTVSPropertyOp16
 70
     1
102
RTVSPropertyOp17
 70
     1
102
RTVSPropertyOp18
 70
     1
102
RTVSPropertyOp19
 70
     1
102
RTVSPropertyOp20
 70
     1
102
RTVSPropertyOp21
 70
     1
102
RTVSPropertyOp22
 70
     1
102
RTVSPropertyOp23
 70
     1
102
RTVSPropertyOp24
 70
     1
102
RTVSPropertyOp25
 70
     1
102
RTVSPropertyOp26
 70
     1
102
RTVSPropertyOp27
 70
     1
102
RTVSPropertyOp28
 70
     1
102
RTVSPropertyOp29
 70
     1
102
RTVSPropertyOp30
 70
     1
102
RTVSPropertyOp31
 70
     1
102
RTVSPropertyOp32
 70
     1
  0
XRECORD
  5
290C5
102
{ACAD_REACTORS
330
290C4
102
}
330
290C4
100
AcDbXrecord
280
     1
102
RTVSPropertyOp0
 70
     1
102
RTVSPropertyOp1
 70
     1
102
RTVSPropertyOp2
 70
     1
102
RTVSPropertyOp3
 70
     1
102
RTVSPropertyOp4
 70
     1
102
RTVSPropertyOp5
 70
     1
102
RTVSPropertyOp6
 70
     1
102
RTVSPropertyOp7
 70
     1
102
RTVSPropertyOp8
 70
     1
102
RTVSPropertyOp9
 70
     1
102
RTVSPropertyOp10
 70
     1
102
RTVSPropertyOp11
 70
     1
102
RTVSPropertyOp12
 70
     1
102
RTVSPropertyOp13
 70
     1
102
RTVSPropertyOp14
 70
     1
102
RTVSPropertyOp15
 70
     1
102
RTVSPropertyOp16
 70
     1
102
RTVSPropertyOp17
 70
     1
102
RTVSPropertyOp18
 70
     1
102
RTVSPropertyOp19
 70
     1
102
RTVSPropertyOp20
 70
     1
102
RTVSPropertyOp21
 70
     1
102
RTVSPropertyOp22
 70
     1
102
RTVSPropertyOp23
 70
     1
102
RTVSPropertyOp24
 70
     1
102
RTVSPropertyOp25
 70
     1
102
RTVSPropertyOp26
 70
     1
102
RTVSPropertyOp27
 70
     1
102
RTVSPropertyOp28
 70
     1
102
RTVSPropertyOp29
 70
     1
102
RTVSPropertyOp30
 70
     1
102
RTVSPropertyOp31
 70
     1
102
RTVSPropertyOp32
 70
     1
  0
XRECORD
  5
290BF
102
{ACAD_REACTORS
330
290BE
102
}
330
290BE
100
AcDbXrecord
280
     1
102
RTVSPropertyOp0
 70
     1
102
RTVSPropertyOp1
 70
     1
102
RTVSPropertyOp2
 70
     1
102
RTVSPropertyOp3
 70
     1
102
RTVSPropertyOp4
 70
     1
102
RTVSPropertyOp5
 70
     1
102
RTVSPropertyOp6
 70
     1
102
RTVSPropertyOp7
 70
     1
102
RTVSPropertyOp8
 70
     1
102
RTVSPropertyOp9
 70
     1
102
RTVSPropertyOp10
 70
     1
102
RTVSPropertyOp11
 70
     1
102
RTVSPropertyOp12
 70
     1
102
RTVSPropertyOp13
 70
     1
102
RTVSPropertyOp14
 70
     1
102
RTVSPropertyOp15
 70
     1
102
RTVSPropertyOp16
 70
     1
102
RTVSPropertyOp17
 70
     1
102
RTVSPropertyOp18
 70
     1
102
RTVSPropertyOp19
 70
     1
102
RTVSPropertyOp20
 70
     1
102
RTVSPropertyOp21
 70
     1
102
RTVSPropertyOp22
 70
     1
102
RTVSPropertyOp23
 70
     1
102
RTVSPropertyOp24
 70
     1
102
RTVSPropertyOp25
 70
     1
102
RTVSPropertyOp26
 70
     1
102
RTVSPropertyOp27
 70
     1
102
RTVSPropertyOp28
 70
     1
102
RTVSPropertyOp29
 70
     1
102
RTVSPropertyOp30
 70
     1
102
RTVSPropertyOp31
 70
     1
102
RTVSPropertyOp32
 70
     1
  0
XRECORD
  5
290C1
102
{ACAD_REACTORS
330
290C0
102
}
330
290C0
100
AcDbXrecord
280
     1
102
RTVSPropertyOp0
 70
     1
102
RTVSPropertyOp1
 70
     1
102
RTVSPropertyOp2
 70
     1
102
RTVSPropertyOp3
 70
     1
102
RTVSPropertyOp4
 70
     1
102
RTVSPropertyOp5
 70
     1
102
RTVSPropertyOp6
 70
     1
102
RTVSPropertyOp7
 70
     1
102
RTVSPropertyOp8
 70
     1
102
RTVSPropertyOp9
 70
     1
102
RTVSPropertyOp10
 70
     1
102
RTVSPropertyOp11
 70
     1
102
RTVSPropertyOp12
 70
     1
102
RTVSPropertyOp13
 70
     1
102
RTVSPropertyOp14
 70
     1
102
RTVSPropertyOp15
 70
     1
102
RTVSPropertyOp16
 70
     1
102
RTVSPropertyOp17
 70
     1
102
RTVSPropertyOp18
 70
     1
102
RTVSPropertyOp19
 70
     1
102
RTVSPropertyOp20
 70
     1
102
RTVSPropertyOp21
 70
     1
102
RTVSPropertyOp22
 70
     1
102
RTVSPropertyOp23
 70
     1
102
RTVSPropertyOp24
 70
     1
102
RTVSPropertyOp25
 70
     1
102
RTVSPropertyOp26
 70
     1
102
RTVSPropertyOp27
 70
     1
102
RTVSPropertyOp28
 70
     1
102
RTVSPropertyOp29
 70
     1
102
RTVSPropertyOp30
 70
     1
102
RTVSPropertyOp31
 70
     1
102
RTVSPropertyOp32
 70
     1
  0
XRECORD
  5
290B7
102
{ACAD_REACTORS
330
290B6
102
}
330
290B6
100
AcDbXrecord
280
     1
102
RTVSPropertyOp0
 70
     1
102
RTVSPropertyOp1
 70
     1
102
RTVSPropertyOp2
 70
     1
102
RTVSPropertyOp3
 70
     1
102
RTVSPropertyOp4
 70
     1
102
RTVSPropertyOp5
 70
     1
102
RTVSPropertyOp6
 70
     1
102
RTVSPropertyOp7
 70
     1
102
RTVSPropertyOp8
 70
     1
102
RTVSPropertyOp9
 70
     1
102
RTVSPropertyOp10
 70
     1
102
RTVSPropertyOp11
 70
     1
102
RTVSPropertyOp12
 70
     1
102
RTVSPropertyOp13
 70
     1
102
RTVSPropertyOp14
 70
     1
102
RTVSPropertyOp15
 70
     1
102
RTVSPropertyOp16
 70
     1
102
RTVSPropertyOp17
 70
     1
102
RTVSPropertyOp18
 70
     1
102
RTVSPropertyOp19
 70
     1
102
RTVSPropertyOp20
 70
     1
102
RTVSPropertyOp21
 70
     1
102
RTVSPropertyOp22
 70
     1
102
RTVSPropertyOp23
 70
     1
102
RTVSPropertyOp24
 70
     1
102
RTVSPropertyOp25
 70
     1
102
RTVSPropertyOp26
 70
     1
102
RTVSPropertyOp27
 70
     1
102
RTVSPropertyOp28
 70
     1
102
RTVSPropertyOp29
 70
     1
102
RTVSPropertyOp30
 70
     1
102
RTVSPropertyOp31
 70
     1
102
RTVSPropertyOp32
 70
     1
  0
XRECORD
  5
290AB
102
{ACAD_REACTORS
330
290AA
102
}
330
290AA
100
AcDbXrecord
280
     1
102
RTVSPropertyOp0
 70
     1
102
RTVSPropertyOp1
 70
     1
102
RTVSPropertyOp2
 70
     1
102
RTVSPropertyOp3
 70
     1
102
RTVSPropertyOp4
 70
     1
102
RTVSPropertyOp5
 70
     1
102
RTVSPropertyOp6
 70
     1
102
RTVSPropertyOp7
 70
     1
102
RTVSPropertyOp8
 70
     1
102
RTVSPropertyOp9
 70
     1
102
RTVSPropertyOp10
 70
     1
102
RTVSPropertyOp11
 70
     1
102
RTVSPropertyOp12
 70
     1
102
RTVSPropertyOp13
 70
     1
102
RTVSPropertyOp14
 70
     1
102
RTVSPropertyOp15
 70
     1
102
RTVSPropertyOp16
 70
     1
102
RTVSPropertyOp17
 70
     1
102
RTVSPropertyOp18
 70
     1
102
RTVSPropertyOp19
 70
     1
102
RTVSPropertyOp20
 70
     1
102
RTVSPropertyOp21
 70
     1
102
RTVSPropertyOp22
 70
     1
102
RTVSPropertyOp23
 70
     1
102
RTVSPropertyOp24
 70
     1
102
RTVSPropertyOp25
 70
     1
102
RTVSPropertyOp26
 70
     1
102
RTVSPropertyOp27
 70
     1
102
RTVSPropertyOp28
 70
     1
102
RTVSPropertyOp29
 70
     1
102
RTVSPropertyOp30
 70
     1
102
RTVSPropertyOp31
 70
     1
102
RTVSPropertyOp32
 70
     1
  0
XRECORD
  5
290C3
102
{ACAD_REACTORS
330
290C2
102
}
330
290C2
100
AcDbXrecord
280
     1
102
RTVSPropertyOp0
 70
     1
102
RTVSPropertyOp1
 70
     1
102
RTVSPropertyOp2
 70
     1
102
RTVSPropertyOp3
 70
     1
102
RTVSPropertyOp4
 70
     1
102
RTVSPropertyOp5
 70
     1
102
RTVSPropertyOp6
 70
     1
102
RTVSPropertyOp7
 70
     1
102
RTVSPropertyOp8
 70
     1
102
RTVSPropertyOp9
 70
     1
102
RTVSPropertyOp10
 70
     1
102
RTVSPropertyOp11
 70
     1
102
RTVSPropertyOp12
 70
     1
102
RTVSPropertyOp13
 70
     1
102
RTVSPropertyOp14
 70
     1
102
RTVSPropertyOp15
 70
     1
102
RTVSPropertyOp16
 70
     1
102
RTVSPropertyOp17
 70
     1
102
RTVSPropertyOp18
 70
     1
102
RTVSPropertyOp19
 70
     1
102
RTVSPropertyOp20
 70
     1
102
RTVSPropertyOp21
 70
     1
102
RTVSPropertyOp22
 70
     1
102
RTVSPropertyOp23
 70
     1
102
RTVSPropertyOp24
 70
     1
102
RTVSPropertyOp25
 70
     1
102
RTVSPropertyOp26
 70
     1
102
RTVSPropertyOp27
 70
     1
102
RTVSPropertyOp28
 70
     1
102
RTVSPropertyOp29
 70
     1
102
RTVSPropertyOp30
 70
     1
102
RTVSPropertyOp31
 70
     1
102
RTVSPropertyOp32
 70
     1
  0
ENDSEC
  0
EOF
